<?xml version="1.0" standalone="no"?>
<!DOCTYPE svg PUBLIC "-//W3C//DTD SVG 1.1//EN" "http://www.w3.org/Graphics/SVG/1.1/DTD/svg11.dtd" >
<svg xmlns="http://www.w3.org/2000/svg">
<metadata>Generated by IcoMoon</metadata>
<defs>
<font id="icomoon" horiz-adv-x="1024">
<font-face units-per-em="1024" ascent="960" descent="-64" />
<missing-glyph horiz-adv-x="1024" />
<glyph unicode="&#x20;" glyph-name="alarm" d="M512 701.338c-166.376 0-301.739-135.364-301.739-301.74 0-166.386 135.364-301.75 301.739-301.75 166.386 0 301.74 135.363 301.74 301.75 0 166.376-135.363 301.74-301.74 301.74zM512 152.534c-136.22 0-247.044 110.834-247.044 247.054s110.822 247.044 247.044 247.044c136.225 0 247.045-110.824 247.045-247.044 0-136.229-110.825-247.054-247.045-247.054zM595.866 408.711h-72.923v105.748c0 15.105-12.246 27.348-27.35 27.348s-27.35-12.243-27.35-27.348v-133.093c0-15.104 12.246-27.35 27.35-27.35h100.278c15.104 0 27.345 12.246 27.345 27.35s-12.241 27.345-27.35 27.345zM357.092 203.869c-11.231 10.11-28.524 9.188-38.624-2.034l-82.045-91.159c-10.111-11.222-9.189-28.514 2.032-38.619 5.224-4.71 11.769-7.028 18.287-7.028 7.485 0 14.942 3.053 20.338 9.062l82.045 91.159c10.109 11.222 9.188 28.518-2.034 38.619zM787.586 110.666l-82.046 91.159c-10.082 11.231-27.383 12.144-38.614 2.034-11.231-10.105-12.134-27.397-2.034-38.619l82.046-91.159c5.385-6 12.842-9.053 20.326-9.053 6.512 0 13.056 2.318 18.288 7.019 11.231 10.105 12.134 27.397 2.034 38.619zM352.452 744.566c-54.341 53.21-141.935 53.128-195.255-0.201-26.529-26.518-41.024-61.607-40.832-98.799 0.201-36.746 14.768-71.151 41.031-96.876 5.324-5.205 12.225-7.803 19.134-7.803 7.001 0 14.002 2.68 19.335 8.004l156.795 156.795c5.16 5.168 8.041 12.18 8.004 19.48-0.035 7.304-2.991 14.286-8.212 19.4zM179.53 609.914c-5.479 11.039-8.406 23.255-8.469 35.944-0.119 22.461 8.687 43.721 24.805 59.838 16.081 16.071 37.34 24.103 58.716 24.103 12.498 0 25.042-2.743 36.601-8.231l-111.652-111.654zM866.802 744.374c-53.327 53.32-140.921 53.411-195.263 0.201-5.213-5.114-8.178-12.098-8.215-19.399s2.853-14.322 8.015-19.48l156.793-156.795c5.334-5.342 12.335-8.013 19.335-8.013 6.912 0 13.819 2.598 19.135 7.821 26.275 25.716 40.839 60.12 41.034 96.867 0.191 37.182-14.313 72.27-40.834 98.797zM844.47 609.914l-111.653 111.652c31.344 14.878 69.841 9.599 95.32-15.879 16.114-16.117 24.92-37.366 24.804-59.838-0.065-12.681-2.993-24.905-8.471-35.935z" />
<glyph unicode="&#xe8fd;" glyph-name="card" d="M263.759 325.711c-16.377 0-29.479-13.549-29.479-30.040s13.102-30.045 29.479-30.045h99.297c16.377 0 29.479 13.554 29.479 30.045s-13.103 30.040-29.479 30.040h-99.297zM234.28 574.942c0 16.491 13.102 30.043 29.479 30.043h496.487c16.375 0 29.477-13.552 29.477-30.043s-13.103-30.043-29.477-30.043h-496.487c-16.377 0-29.479 13.552-29.479 30.043zM233.968 731.927c-54.799 0-98.987-45.344-98.987-101.131v-365.595c0-55.785 44.187-101.129 98.987-101.129h556.062c54.803 0 98.988 45.345 98.988 101.129v365.595c0 55.787-44.186 101.131-98.988 101.131h-556.062zM193.939 630.797c0 22.663 18.122 41.045 40.029 41.045h556.062c21.909 0 40.029-18.382 40.029-41.045v-365.595c0-22.663-18.12-41.044-40.029-41.044h-556.062c-21.907 0-40.029 18.381-40.029 41.044v365.595z" />
<glyph unicode="&#xe900;" glyph-name="fax" d="M503.852 668.207h93.696c11.046 0 19.999 8.955 19.999 20s-8.953 20-19.999 20h-93.696c-11.046 0-19.999-8.955-19.999-20s8.953-20 19.999-20zM503.852 588.018h185.627c11.046 0 19.999 8.953 19.999 19.999s-8.953 20-19.999 20h-185.627c-11.046 0-19.999-8.955-19.999-20s8.953-19.999 19.999-19.999v0zM794.665 525.189v227.192c0 20.375-16.575 36.952-36.949 36.952h-322.096c-20.374 0-36.953-16.577-36.953-36.952v-227.192c-15.084-3.072-28.484-10.803-38.666-21.603-13.384 14.193-32.334 23.081-53.334 23.081h-62.667c-40.436 0-73.333-32.898-73.333-73.335v-273.333c0-40.434 32.897-73.332 73.333-73.332h62.667c21 0 39.95 8.888 53.334 23.081 13.38-14.193 32.331-23.081 53.333-23.081h366.667c40.434 0 73.332 32.898 73.332 73.332v273.333c0 35.417-25.235 65.044-58.668 71.857zM754.668 749.333v-222.666h-316v222.666h316zM340 179.999c0-18.377-14.953-33.331-33.333-33.331h-62.667c-18.38 0-33.333 14.954-33.333 33.331v273.333c0 18.381 14.953 33.335 33.333 33.335h62.667c18.38 0 33.333-14.954 33.333-33.335v-273.333zM813.332 179.999c0-18.377-14.954-33.331-33.331-33.331h-366.667c-18.381 0-33.335 14.954-33.335 33.331v273.333c0 18.381 14.954 33.335 33.335 33.335h366.667c18.377 0 33.331-14.954 33.331-33.335v-273.333zM503.334 416.666h-26.668c-11.046 0-19.999-8.953-19.999-19.999s8.953-19.999 19.999-19.999h26.668c11.046 0 19.999 8.953 19.999 19.999s-8.953 19.999-19.999 19.999zM610 416.666h-26.668c-11.046 0-19.999-8.953-19.999-19.999s8.953-19.999 19.999-19.999h26.668c11.046 0 19.999 8.953 19.999 19.999s-8.953 19.999-19.999 19.999zM716.667 416.666h-26.668c-11.046 0-19.999-8.953-19.999-19.999s8.953-19.999 19.999-19.999h26.668c11.046 0 19.999 8.953 19.999 19.999s-8.953 19.999-19.999 19.999zM503.334 336.667h-26.668c-11.046 0-19.999-8.957-19.999-20.002s8.953-19.999 19.999-19.999h26.668c11.046 0 19.999 8.953 19.999 19.999s-8.953 20.002-19.999 20.002zM610 336.667h-26.668c-11.046 0-19.999-8.957-19.999-20.002s8.953-19.999 19.999-19.999h26.668c11.046 0 19.999 8.953 19.999 19.999s-8.953 20.002-19.999 20.002zM716.667 336.667h-26.668c-11.046 0-19.999-8.957-19.999-20.002s8.953-19.999 19.999-19.999h26.668c11.046 0 19.999 8.953 19.999 19.999s-8.953 20.002-19.999 20.002zM503.334 256.666h-26.668c-11.046 0-19.999-8.953-19.999-19.999s8.953-19.999 19.999-19.999h26.668c11.046 0 19.999 8.953 19.999 19.999s-8.953 19.999-19.999 19.999zM610 256.666h-26.668c-11.046 0-19.999-8.953-19.999-19.999s8.953-19.999 19.999-19.999h26.668c11.046 0 19.999 8.953 19.999 19.999s-8.953 19.999-19.999 19.999zM716.667 256.666h-26.668c-11.046 0-19.999-8.953-19.999-19.999s8.953-19.999 19.999-19.999h26.668c11.046 0 19.999 8.953 19.999 19.999s-8.953 19.999-19.999 19.999z" />
<glyph unicode="&#xe901;" glyph-name="check" d="M472.734 261.818l-240.007 214.291 48.71 43.257 191.297-167.561 316.546 282.377 48.538-43.452-365.084-328.912z" />
<glyph unicode="&#xe902;" glyph-name="cart" d="M344.764 273.551h455.991c5.55 0.041 10.929 1.908 15.316 5.301 4.383 3.393 7.52 8.127 8.926 13.472l100.509 360.985c1.072 3.832 1.26 7.856 0.55 11.772s-2.297 7.62-4.646 10.838c-2.297 3.164-5.315 5.742-8.8 7.526-3.488 1.786-7.349 2.726-11.271 2.744h-614.549l-17.968 82.952c-1.154 5.658-4.222 10.75-8.694 14.426s-10.074 5.712-15.874 5.77h-150.856c-6.77-0.106-13.218-2.884-17.93-7.722s-7.304-11.342-7.204-18.080c-0.1-6.74 2.49-13.24 7.204-18.080s11.162-7.616 17.93-7.722h130.706l90.784-418.993c-13.642-6.219-25.188-16.227-33.254-28.819s-12.31-27.238-12.218-42.172c-0.274-20.21 7.512-39.704 21.652-54.207 14.14-14.5 33.478-22.835 53.775-23.166h455.912c6.724 0.218 13.1 3.031 17.78 7.84 4.68 4.813 7.298 11.247 7.298 17.947s-2.618 13.135-7.298 17.947c-4.68 4.809-11.056 7.625-17.78 7.837h-455.909c-6.726 0.218-13.104 3.031-17.784 7.84-4.68 4.813-7.298 11.247-7.298 17.947s2.618 13.135 7.298 17.951c4.68 4.813 11.058 7.622 17.784 7.84l-0.082 0.024zM867.994 634.588l-86.204-309.465h-416.795l-67.051 309.465h570.050zM326.096 102.728c0-13.056 3.888-25.818 11.174-36.669 7.282-10.854 17.638-19.313 29.752-24.31 12.114-4.994 25.443-6.301 38.304-3.755 12.858 2.546 24.672 8.83 33.942 18.063 9.274 9.23 15.582 20.989 18.142 33.792 2.56 12.8 1.246 26.074-3.772 38.134-5.018 12.063-13.517 22.371-24.416 29.621-10.902 7.253-23.719 11.124-36.833 11.124-17.579-0.020-34.427-6.98-46.855-19.354-12.43-12.377-19.417-29.15-19.44-46.647zM392.39 124.72c4.369 0 8.643-1.29 12.274-3.707s6.465-5.85 8.134-9.871c1.673-4.017 2.106-8.438 1.26-12.701-0.853-4.27-2.956-8.185-6.045-11.261-3.092-3.079-7.028-5.175-11.312-6.018-4.284-0.85-8.728-0.416-12.762 1.249-4.038 1.666-7.485 4.485-9.912 8.1-2.43 3.618-3.724 7.868-3.724 12.22 0 2.891 0.58 5.758 1.696 8.428 1.116 2.673 2.748 5.1 4.809 7.141 2.058 2.045 4.502 3.663 7.192 4.765 2.686 1.099 5.567 1.666 8.472 1.655h-0.082zM716.752 66.058c-7.284 10.851-11.172 23.613-11.172 36.669 0.020 17.497 7.011 34.27 19.439 46.647 12.428 12.373 29.28 19.333 46.855 19.354 13.111 0 25.928-3.871 36.83-11.124 10.902-7.25 19.401-17.558 24.419-29.621 5.018-12.059 6.325-25.334 3.772-38.134-2.553-12.803-8.868-24.562-18.142-33.792-9.271-9.233-21.084-15.517-33.942-18.063-12.861-2.546-26.191-1.239-38.304 3.755-12.114 4.997-22.47 13.459-29.754 24.31zM784.148 121.013c-3.632 2.417-7.902 3.707-12.271 3.707l-0.079 0.007c-5.847-0.034-11.438-2.362-15.565-6.482-4.123-4.12-6.441-9.697-6.448-15.514 0-4.352 1.297-8.602 3.724-12.22 2.427-3.615 5.874-6.434 9.912-8.1s8.479-2.099 12.762-1.249c4.287 0.843 8.223 2.939 11.312 6.018 3.089 3.075 5.192 6.994 6.045 11.261 0.853 4.263 0.413 8.684-1.256 12.701-1.673 4.021-4.509 7.455-8.137 9.871z" />
<glyph unicode="&#xe903;" glyph-name="a_mail" d="M723.959 176.421c8.797-13.442 5.022-31.474-8.425-40.266-60.49-39.559-130.816-60.486-203.38-60.518-0.056 0-0.121 0-0.177 0-99.051-0.005-192.147 38.158-262.187 107.478-70.085 69.357-109.204 162.136-110.159 261.232-0.96 99.722 37.011 193.762 106.915 264.807 69.915 71.057 163.295 110.545 262.941 111.205 0.819 0 1.657 0.006 2.472 0.006 77.773 0 152.464-24.068 216.166-69.682 62.948-45.074 109.847-107.131 135.619-179.46 5.395-15.137-2.504-31.778-17.636-37.171-15.137-5.392-31.772 2.506-37.171 17.637-44.944 126.12-164.138 210.494-297.011 210.494-0.694 0-1.364 0-2.057-0.006-84.067-0.551-162.857-33.875-221.851-93.83-58.977-59.943-91.012-139.296-90.205-223.437 1.648-171.562 142.574-311.091 314.169-311.091h0.144c61.231 0.028 120.562 17.669 171.567 51.028 13.442 8.797 31.474 5.022 40.266-8.425zM884.34 417.457c0-72.993-59.373-132.366-132.361-132.366-46.639 0-87.72 24.246-111.304 60.798-30.134-37.907-76.623-62.25-128.698-62.25-90.63 0-164.363 73.733-164.363 164.361 0 90.631 73.733 164.364 164.363 164.364 41.132 0 78.778-15.187 107.636-40.244v5.142c0 16.062 13.023 29.091 29.091 29.091s29.091-13.029 29.091-29.091v-159.805c0-40.904 33.28-74.184 74.184-74.184 40.899 0 74.179 33.28 74.179 74.184 0 16.067 13.023 29.091 29.091 29.091s29.091-13.023 29.091-29.091zM618.161 448c0 58.545-47.635 106.182-106.184 106.182-58.545 0-106.181-47.636-106.181-106.182 0-58.55 47.636-106.179 106.181-106.179 58.55 0 106.184 47.63 106.184 106.179z" />
<glyph unicode="&#xe904;" glyph-name="add" d="M643.557 448c0-14.729-11.94-26.665-26.668-26.665h-78.223v-78.223c0-14.729-11.936-26.668-26.665-26.668s-26.665 11.94-26.665 26.668v78.223h-78.223c-14.729 0-26.668 11.936-26.668 26.665s11.94 26.665 26.668 26.665h78.223v78.223c0 14.729 11.936 26.668 26.665 26.668s26.665-11.94 26.665-26.668v-78.223h78.223c14.729 0 26.668-11.936 26.668-26.665zM853.333 591.503v-287.007c0-49.862-19.418-96.737-54.675-131.994-5.615-3.963-51.975-65.836-143.155-65.836h-287.007c-91.171 0-137.482 61.833-143.157 65.836-35.256 35.256-54.673 82.132-54.673 131.994v287.007c0 49.862 19.417 96.738 54.673 131.994 5.616 3.963 51.974 65.836 143.157 65.836h287.007c91.17 0 137.482-61.832 143.155-65.836 35.26-35.256 54.675-82.133 54.675-131.994zM800 591.503c0 35.615-13.868 69.098-39.052 94.281-5.844 4.201-38.277 50.216-105.445 50.216h-287.007c-66.807 0-99.799-46.156-105.445-50.216-25.183-25.183-39.052-58.665-39.052-94.281v-287.007c0-35.615 13.869-69.1 39.052-94.28 5.843-4.202 38.277-50.217 105.445-50.217h287.007c66.806 0 99.799 46.155 105.445 50.217 25.184 25.18 39.052 58.665 39.052 94.28v287.007z" />
<glyph unicode="&#xe905;" horiz-adv-x="1331" d="M1211.733 345.6h85.333v-68.267h-85.333v68.267z" />
<glyph unicode="&#xe906;" glyph-name="arrow_down" d="M256.924 614.454c14.811 12.343 36.824 10.341 49.166-4.469l205.909-247.093 205.908 247.093c12.344 14.811 34.355 16.812 49.166 4.469s16.812-34.355 4.473-49.166l-259.547-311.452-259.545 311.452c-12.343 14.811-10.341 36.824 4.469 49.166z" />
<glyph unicode="&#xe907;" glyph-name="arrow_left" d="M678.456 703.076c12.339-14.811 10.338-36.824-4.473-49.166l-247.089-205.909 247.089-205.908c14.811-12.344 16.812-34.355 4.473-49.166-12.344-14.811-34.355-16.812-49.166-4.473l-311.456 259.547 311.456 259.545c14.811 12.342 36.822 10.341 49.166-4.47z" />
<glyph unicode="&#xe908;" glyph-name="arrow_right" d="M392.092 192.926c-12.344 14.811-10.342 36.822 4.468 49.166l247.094 205.908-247.092 205.91c-14.81 12.342-16.812 34.356-4.468 49.166s34.356 16.812 49.166 4.47l311.45-259.546-311.45-259.547c-14.81-12.339-36.824-10.338-49.166 4.473h-0.002z" />
<glyph unicode="&#xe909;" glyph-name="arrow_up" d="M767.074 328.090c-14.811-12.339-36.822-10.338-49.166 4.473l-205.908 247.089-205.909-247.089c-12.343-14.811-34.355-16.812-49.166-4.473-14.811 12.344-16.812 34.355-4.47 49.166l259.545 311.456 259.547-311.456c12.339-14.811 10.338-36.822-4.473-49.166z" />
<glyph unicode="&#xe90a;" glyph-name="bikou" d="M512 820.364c-205.637 0-372.364-145.873-372.364-325.818 0-102.842 54.575-194.397 139.636-254.115v-164.794l163.119 98.979c22.575-3.724 45.801-5.888 69.609-5.888 205.661 0 372.364 145.873 372.364 325.818s-166.703 325.818-372.364 325.818zM512 215.273c-27.183 0-53.434 3.165-78.662 8.541l-109.569-65.862 1.467 107.939c-83.99 50.525-139.054 134.028-139.054 228.655 0 154.228 145.873 279.273 325.818 279.273s325.818-125.045 325.818-279.273c0-154.228-145.873-279.273-325.818-279.273zM533.16 511.399c-6.26 4.185-13.629 6.42-21.16 6.42-10.1 0-19.791-4.013-26.931-11.156-7.145-7.143-11.157-16.831-11.157-26.932 0-7.536 2.234-14.899 6.419-21.164s10.133-11.148 17.091-14.029c6.963-2.881 14.62-3.635 22.007-2.169 7.391 1.471 14.178 5.097 19.503 10.426 5.329 5.325 8.955 12.116 10.426 19.503s0.717 15.048-2.169 22.007c-2.881 6.961-7.764 12.91-14.029 17.095zM651.697 458.566c-4.184 6.265-6.419 13.629-6.419 21.164 0 4.999 0.982 9.951 2.9 14.573 1.913 4.622 4.72 8.821 8.253 12.358 3.537 3.537 7.736 6.343 12.358 8.257s9.574 2.899 14.578 2.899c7.531 0 14.895-2.234 21.16-6.42s11.148-10.134 14.029-17.095c2.881-6.959 3.64-14.62 2.169-22.007s-5.097-14.178-10.426-19.503c-5.325-5.329-12.111-8.955-19.503-10.426-7.387-1.466-15.043-0.712-22.007 2.169-6.959 2.881-12.907 7.764-17.091 14.029zM308.965 458.566c-4.185 6.265-6.419 13.629-6.419 21.164 0 10.096 4.043 19.777 11.178 26.92s16.815 11.159 26.911 11.169c7.533 0 14.897-2.234 21.161-6.42s11.146-10.134 14.028-17.095c2.883-6.959 3.638-14.62 2.168-22.007s-5.097-14.178-10.424-19.503c-5.327-5.329-12.114-8.955-19.503-10.426-7.388-1.466-15.047-0.712-22.007 2.169s-12.908 7.764-17.094 14.029z" />
<glyph unicode="&#xe90b;" glyph-name="calendar" d="M797.091 762.182h-34.909v58.182h-58.182v-58.182h-384v58.182h-58.182v-58.182h-34.909c-48.122 0-87.273-39.151-87.273-87.273v-512c0-48.123 39.151-87.273 87.273-87.273h570.182c48.123 0 87.273 39.149 87.273 87.273v512c0 48.122-39.149 87.273-87.273 87.273zM826.182 162.909c0-16.040-13.051-29.091-29.091-29.091h-570.182c-16.040 0-29.091 13.051-29.091 29.091v384h628.364v-384zM826.182 605.091h-628.364v69.818c0 16.040 13.050 29.091 29.091 29.091h34.909v-58.182h58.182v58.182h384v-58.182h58.182v58.182h34.909c16.040 0 29.091-13.050 29.091-29.091v-69.818zM308.364 485.818h-58.182v-58.182h58.182v58.182zM424.727 485.818h-58.182v-58.182h58.182v58.182zM541.091 485.818h-58.182v-58.182h58.182v58.182zM657.455 485.818h-58.182v-58.182h58.182v58.182zM773.818 485.818h-58.182v-58.182h58.182v58.182zM308.364 369.455h-58.182v-58.182h58.182v58.182zM424.727 369.455h-58.182v-58.182h58.182v58.182zM541.091 369.455h-58.182v-58.182h58.182v58.182zM657.455 369.455h-58.182v-58.182h58.182v58.182zM308.364 253.091h-58.182v-58.182h58.182v58.182zM424.727 253.091h-58.182v-58.182h58.182v58.182zM541.091 253.091h-58.182v-58.182h58.182v58.182zM657.455 253.091h-58.182v-58.182h58.182v58.182zM773.818 369.455h-58.182v-58.182h58.182v58.182z" />
<glyph unicode="&#xe90c;" glyph-name="cart_delete" d="M641.348 575.379c13.227-13.431 13.063-35.041-0.372-48.268l-80.329-79.111 80.329-79.104c13.431-13.23 13.599-34.84 0.369-48.271-13.227-13.431-34.836-13.599-48.268-0.372l-81.077 79.841-81.073-79.838c-13.431-13.227-35.045-13.063-48.271 0.369s-13.059 35.045 0.372 48.271l80.326 79.104-80.329 79.107c-13.431 13.23-13.595 34.84-0.369 48.271s34.84 13.599 48.271 0.369l81.073-79.841 81.077 79.845c13.431 13.227 35.045 13.059 48.271-0.372zM887.467 448c0 207.364-168.103 375.467-375.467 375.467s-375.467-168.102-375.467-375.467c0-207.363 168.102-375.467 375.467-375.467 207.363 0 375.467 168.103 375.467 375.467zM836.267 448c0-179.087-145.179-324.267-324.267-324.267s-324.267 145.179-324.267 324.267c0 179.088 145.179 324.267 324.267 324.267s324.267-145.179 324.267-324.267z" />
<glyph unicode="&#xe90d;" d="M512 72.533c207.363 0 375.467 168.103 375.467 375.467s-168.103 375.467-375.467 375.467c-207.364 0-375.467-168.102-375.467-375.467 0-207.363 168.102-375.467 375.467-375.467z" />
<glyph unicode="&#xe90e;" d="M449.072 311.467l-176.005 157.146 35.721 31.72 140.285-122.877 232.134 207.077 35.594-31.863-267.728-241.203z" />
<glyph unicode="&#xe90f;" glyph-name="close" d="M761.112 154.774c13.431-13.227 35.045-13.063 48.271 0.369s13.063 35.045-0.369 48.271l-248.368 244.586 248.368 244.588c13.431 13.227 13.599 34.839 0.372 48.27-13.23 13.432-34.84 13.598-48.271 0.37l-249.115-245.322-249.116 245.327c-13.432 13.227-35.043 13.062-48.271-0.37s-13.061-35.043 0.37-48.27l248.373-244.592-248.371-244.589c-13.432-13.227-13.598-34.84-0.37-48.271s34.839-13.599 48.271-0.369l249.114 245.323 249.112-245.32z" />
<glyph unicode="&#xe910;" horiz-adv-x="1331" d="M34.133 772.267h785.067v-238.933h-785.067v238.933z" />
<glyph unicode="&#xe911;" horiz-adv-x="1331" d="M257.652 153.866c-12.74 0-25.194-3.833-35.787-11.015-10.592-7.182-18.848-17.391-23.723-29.334-4.876-11.943-6.151-25.085-3.666-37.765s8.62-24.325 17.628-33.466 20.485-15.365 32.981-17.888c12.495-2.522 25.445-1.229 37.216 3.719 11.769 4.948 21.83 13.326 28.908 24.074s10.856 23.385 10.856 36.313c-0.020 17.329-6.813 33.944-18.888 46.196-12.076 12.254-28.448 19.147-45.525 19.166zM257.652 66.717c-4.248 0-8.399 1.278-11.93 3.671s-6.282 5.798-7.907 9.779c-1.626 3.98-2.051 8.361-1.222 12.588s2.872 8.108 5.876 11.155c3.002 3.046 6.828 5.122 10.993 5.963 4.166 0.84 8.482 0.41 12.406-1.241 3.924-1.649 7.277-4.441 9.636-8.025 2.359-3.582 3.618-7.794 3.618-12.104-0.005-5.777-2.27-11.313-6.296-15.399-4.024-4.084-9.482-6.381-15.174-6.388z" />
<glyph unicode="&#xe912;" d="M512 72.533c207.363 0 375.467 168.103 375.467 375.467s-168.103 375.467-375.467 375.467c-207.364 0-375.467-168.102-375.467-375.467 0-207.363 168.102-375.467 375.467-375.467z" />
<glyph unicode="&#xe913;" d="M307.2 448c0 18.852 15.282 34.133 34.133 34.133h341.333c18.852 0 34.133-15.281 34.133-34.133s-15.281-34.133-34.133-34.133h-341.333c-18.851 0-34.133 15.281-34.133 34.133z" />
<glyph unicode="&#xe914;" glyph-name="detail" d="M580.267 721.067c0-37.703-30.563-68.267-68.267-68.267s-68.267 30.564-68.267 68.267c0 37.703 30.563 68.267 68.267 68.267s68.267-30.564 68.267-68.267zM580.267 448c0-37.704-30.563-68.267-68.267-68.267s-68.267 30.563-68.267 68.267c0 37.704 30.563 68.267 68.267 68.267s68.267-30.563 68.267-68.267zM512 106.667c37.704 0 68.267 30.563 68.267 68.267s-30.563 68.267-68.267 68.267c-37.704 0-68.267-30.563-68.267-68.267s30.563-68.267 68.267-68.267z" />
<glyph unicode="&#xe915;" glyph-name="dl" d="M491.231 811.746c5.464 5.518 12.874 8.618 20.601 8.618s15.137-3.1 20.601-8.618c5.464-5.518 8.532-13.002 8.532-20.806v-407.48l82.744 83.707c5.464 5.52 12.884 8.625 20.61 8.625 7.731 0 15.141-3.1 20.606-8.62 5.464-5.516 8.536-13.005 8.536-20.81s-3.072-15.29-8.536-20.81l-132.385-133.702c-2.676-2.769-5.874-4.966-9.407-6.461-3.551-1.508-7.363-2.271-11.213-2.257-7.694 0.065-15.076 3.184-20.513 8.681l-132.829 133.944c-5.465 5.52-8.54 13.009-8.54 20.815s3.071 15.29 8.535 20.81c5.465 5.52 12.876 8.62 20.605 8.62s15.141-3.1 20.606-8.62l82.914-83.74v407.298c0 7.804 3.067 15.288 8.532 20.806zM148.17 482.695c5.464 5.52 12.874 8.62 20.601 8.62s15.137-3.1 20.601-8.62c5.464-5.516 8.533-13 8.533-20.806v-194.76c0.032-22.812 9.020-44.684 24.993-60.816 15.975-16.133 37.633-25.209 60.226-25.242h457.882c22.589 0.033 44.251 9.109 60.225 25.242 15.974 16.137 24.962 38.009 24.99 60.826v191.66c0 7.759 3.053 15.202 8.485 20.689 5.423 5.474 12.777 8.555 20.443 8.564 3.812 0.037 7.596-0.694 11.134-2.141 3.547-1.452 6.777-3.603 9.495-6.321 2.723-2.723 4.883-5.962 6.353-9.528 1.475-3.57 2.234-7.396 2.234-11.264v-191.67c-0.033-38.433-15.165-75.283-42.072-102.456-26.903-27.173-63.386-42.454-101.437-42.491h-457.702c-38.050 0.037-74.539 15.318-101.445 42.491s-42.036 64.019-42.071 102.447v194.769c0 7.806 3.069 15.29 8.533 20.806z" />
<glyph unicode="&#xe916;" glyph-name="double_arrow" d="M399.181 609.985c12.343-14.811 10.341-36.824-4.469-49.166l-121.418-101.182h477.415l-121.418 101.182c-14.811 12.343-16.812 34.355-4.473 49.166 12.344 14.811 34.355 16.812 49.166 4.469l218.363-181.968-218.363-181.969c-14.811-12.344-36.822-10.342-49.166 4.468-12.339 14.811-10.338 36.822 4.473 49.166l102.8 85.667h-440.179l102.8-85.667c14.811-12.344 16.812-34.355 4.469-49.166s-34.355-16.812-49.166-4.468l-218.363 181.969 218.363 181.968c14.811 12.342 36.824 10.341 49.166-4.47z" />
<glyph unicode="&#xe917;" glyph-name="edit" d="M840.533 471.467v-234.667c0-64.693-52.64-117.333-117.333-117.333h-422.4c-64.692 0-117.333 52.64-117.333 117.333v422.4c0 64.692 52.641 117.333 117.333 117.333h234.667c12.96 0 23.467-10.507 23.467-23.467s-10.506-23.467-23.467-23.467h-234.667c-38.82 0-70.4-31.58-70.4-70.4v-422.4c0-38.82 31.58-70.4 70.4-70.4h422.4c38.82 0 70.4 31.58 70.4 70.4v234.667c0 12.96 10.506 23.467 23.467 23.467s23.467-10.506 23.467-23.467zM354.608 441.126l328.533 328.532c9.172 9.17 24.020 9.17 33.184 0l117.333-117.333c9.168-9.17 9.168-24.018 0-33.182l-328.533-328.535c-4.4-4.4-10.366-6.874-16.592-6.874h-117.333c-12.96 0-23.467 10.506-23.467 23.467v117.333c0 6.226 2.475 12.192 6.874 16.592zM662.514 682.667l84.152-84.152 37.219 37.219-84.152 84.152-37.219-37.218zM394.667 330.667h84.152l234.667 234.667-84.152 84.152-234.667-234.666v-84.152z" />
<glyph unicode="&#xe918;" d="M512 75.636c205.652 0 372.364 166.712 372.364 372.364s-166.712 372.364-372.364 372.364c-205.651 0-372.364-166.713-372.364-372.364s166.713-372.364 372.364-372.364z" />
<glyph unicode="&#xe919;" d="M494.932 676.074c-6.451 0-12.609-2.677-17.012-7.393s-6.647-11.046-6.205-17.481l17.068-247.464c0.842-12.204 10.985-21.672 23.217-21.672s22.374 9.467 23.217 21.672l17.068 247.464c0.442 6.435-1.806 12.766-6.205 17.481-4.403 4.716-10.566 7.393-17.012 7.393h-34.136zM563.2 260.268c0-28.276-22.924-51.2-51.2-51.2s-51.199 22.924-51.199 51.2c0 28.276 22.923 51.2 51.199 51.2s51.2-22.924 51.2-51.2z" />
<glyph unicode="&#xe91a;" glyph-name="exclamation" horiz-adv-x="1071" d="M522.142 792.437c-190.226 0-344.435-154.21-344.435-344.437s154.209-344.436 344.435-344.436c190.227 0 344.436 154.21 344.436 344.436s-154.21 344.437-344.436 344.437zM121.852 448c0 221.075 179.216 400.291 400.29 400.291 221.077 0 400.291-179.217 400.291-400.291 0-221.072-179.214-400.291-400.291-400.291-221.074 0-400.29 179.219-400.29 400.291zM488.066 668.681c4.403 4.716 10.561 7.392 17.012 7.392h34.136c6.447 0 12.609-2.677 17.012-7.392 4.399-4.716 6.647-11.046 6.205-17.482l-17.068-247.464c-0.842-12.204-10.985-21.672-23.217-21.672s-22.374 9.467-23.217 21.672l-17.068 247.464c-0.442 6.435 1.801 12.766 6.205 17.482zM522.142 209.068c28.276 0 51.2 22.924 51.2 51.2s-22.924 51.2-51.2 51.2c-28.276 0-51.2-22.924-51.2-51.2s22.924-51.2 51.2-51.2z" />
<glyph unicode="&#xe91b;" glyph-name="print" d="M576 288h-128c-11.783 0-21.333 9.551-21.333 21.333s9.551 21.333 21.333 21.333h128c11.783 0 21.333-9.551 21.333-21.333s-9.551-21.333-21.333-21.333zM448 192h128c11.783 0 21.333 9.551 21.333 21.333s-9.551 21.333-21.333 21.333h-128c-11.783 0-21.333-9.551-21.333-21.333s9.551-21.333 21.333-21.333zM714.667 490.667h32c11.783 0 21.333 9.551 21.333 21.333s-9.551 21.333-21.333 21.333h-32c-11.783 0-21.333-9.551-21.333-21.333s9.551-21.333 21.333-21.333zM767.843 608h39.165c25.545 0 46.326-20.78 46.326-46.326v-248.682c0-25.545-20.78-46.326-46.326-46.326h-113.674v-113.674c0-25.545-20.78-46.326-46.326-46.326h-270.015c-25.545 0-46.326 20.78-46.326 46.326v113.674h-113.673c-25.545 0-46.327 20.78-46.327 46.326v248.682c0 25.545 20.781 46.326 46.327 46.326h39.165l-0.042 0.451-0.010 0.089c-0.124 1.236-0.124 2.481-0.115 54.886l0.008 79.581c0 25.545 20.781 46.327 46.327 46.327h419.347c25.545 0 46.326-20.781 46.326-46.327l0.007-78.585c0.010-53.469 0.010-54.684-0.113-55.886l-0.010-0.085-0.041-0.451zM298.667 743.007v-131.347c0-2.017 1.641-3.659 3.66-3.659h419.347c2.017 0 3.659 1.642 3.659 3.659v131.347c0 2.019-1.642 3.66-3.659 3.66h-419.347c-2.019 0-3.66-1.641-3.66-3.66zM647.008 149.333c2.017 0 3.659 1.642 3.659 3.659v216.682c0 2.017-1.642 3.659-3.659 3.659h-270.015c-2.017 0-3.659-1.642-3.659-3.659v-216.682c0-2.017 1.642-3.659 3.659-3.659h270.015zM807.008 309.333c2.017 0 3.659 1.642 3.659 3.659v248.682c0 2.017-1.642 3.659-3.659 3.659h-590.014c-2.019 0-3.66-1.642-3.66-3.659v-248.682c0-2.017 1.641-3.659 3.66-3.659h113.673v60.341c0 25.545 20.78 46.326 46.326 46.326h270.015c25.545 0 46.326-20.78 46.326-46.326v-60.341h113.674z" />
<glyph unicode="&#xe91c;" glyph-name="history" d="M563.521 773.692c-186.779 5.067-339.797-142.97-339.797-325.753h-65.684c-16.512 0-24.585-19.549-12.843-30.767l102.379-101.348c7.339-7.238 18.715-7.238 26.053 0l102.38 101.348c2.535 2.551 4.249 5.786 4.924 9.295s0.281 7.14-1.132 10.431c-1.413 3.291-3.781 6.093-6.807 8.057s-6.573 3.002-10.196 2.984h-65.684c0 141.158 116.69 255.172 260.537 253.362 136.504-1.81 251.359-115.099 253.193-249.746 1.834-141.521-113.752-256.982-256.866-256.982-59.080 0-113.754 19.907-157.054 53.569-7.028 5.46-15.847 8.183-24.778 7.647s-17.351-4.287-23.66-10.543c-15.412-15.202-14.311-40.904 2.936-53.932 57.653-44.972 129.056-69.339 202.556-69.134 185.311 0 335.393 150.933 330.254 335.165-4.766 169.756-148.615 311.64-320.712 316.346zM544.805 592.717c-15.043 0-27.522-12.306-27.522-27.146v-133.196c0-12.67 6.973-24.613 17.981-31.13l114.493-66.96c13.21-7.601 30.087-3.258 37.795 9.411 7.703 13.028 3.3 29.677-9.542 37.278l-105.681 61.896v123.062c0 14.478-12.474 26.784-27.522 26.784z" />
<glyph unicode="&#xe91d;" glyph-name="lock" d="M724.778 572.122h-35.463v70.927c0 97.877-79.439 177.315-177.315 177.315-97.879 0-177.317-79.438-177.317-177.317v-70.927h-35.463c-39.186 0-70.927-31.739-70.927-70.927v-354.631c0-39.187 31.741-70.926 70.927-70.926h425.558c39.187 0 70.926 31.739 70.926 70.926v354.633c0 39.186-31.739 70.927-70.926 70.927zM512 252.951c-39.187 0-70.927 31.739-70.927 70.931 0 39.187 31.741 70.921 70.927 70.921s70.926-31.735 70.926-70.926c0-39.187-31.739-70.926-70.926-70.926zM621.936 572.122h-219.871v70.927c0 60.642 49.293 109.935 109.936 109.935 60.639 0 109.936-49.293 109.936-109.935v-70.927z" />
<glyph unicode="&#xe91e;" glyph-name="mail" d="M864.824 708.623c-6.079 6.005-13.377 10.757-21.457 13.964-8.076 3.207-16.752 4.8-25.498 4.681h-611.733c-8.746 0.119-17.426-1.474-25.503-4.68s-15.38-7.959-21.458-13.964c-6.291-5.802-11.27-12.773-14.63-20.482s-5.028-15.994-4.903-24.344v-431.596c-0.126-8.35 1.543-16.631 4.902-24.343 3.36-7.708 8.339-14.676 14.631-20.475 6.077-6.009 13.379-10.761 21.457-13.968s16.757-4.799 25.504-4.682h611.733c17.617 0.056 34.495 6.758 46.955 18.651 12.456 11.888 19.479 28.002 19.535 44.819v431.596c0.126 8.349-1.545 16.634-4.906 24.344-3.356 7.71-8.336 14.68-14.629 20.482zM831.171 232.197c-0.042-3.351-1.462-6.554-3.942-8.923-2.486-2.369-5.841-3.719-9.351-3.761h-611.746c-3.512 0.042-6.868 1.392-9.353 3.761s-3.9 5.571-3.945 8.923v304.656c8.796-9.458 18.386-18.214 28.675-26.181 74.252-54.48 133.265-99.173 177.038-134.077 14.129-11.376 25.626-20.238 34.492-26.582 11.222-7.629 23.273-14.075 35.943-19.237 13.321-6.079 27.843-9.388 42.603-9.705h0.833c14.76 0.321 29.277 3.631 42.594 9.714 12.674 5.157 24.73 11.608 35.956 19.237 8.862 6.349 20.359 15.206 34.495 26.582 43.776 34.909 102.786 79.602 177.036 134.077 10.287 7.964 19.875 16.721 28.663 26.181v-304.657l0.009-0.009zM831.171 653.474v-4.362c0-15.601-6.437-32.989-19.316-52.163-11.213-17.338-25.325-32.806-41.779-45.79-53.476-40.204-109.028-82.121-166.656-125.752-1.652-1.317-6.502-5.218-14.545-11.692-8.048-6.479-14.424-11.436-19.13-14.881-4.724-3.44-10.887-7.61-18.488-12.511-6.568-4.347-13.605-8.001-20.992-10.906-5.669-2.239-11.729-3.444-17.864-3.561h-0.815c-6.135 0.116-12.195 1.322-17.864 3.561-7.387 2.9-14.424 6.558-20.987 10.906-7.613 4.892-13.777 9.062-18.49 12.511-4.714 3.454-11.090 8.411-19.128 14.881-8.030 6.474-12.879 10.375-14.549 11.692-57.622 43.636-113.17 85.555-166.645 125.752-40.723 30.657-61.083 68.205-61.081 112.645 0.049 3.352 1.465 6.554 3.948 8.924s5.838 3.723 9.35 3.769h611.729c0.842-0.549 1.797-0.921 2.797-1.092 1.005-0.171 2.034-0.138 3.021 0.098 1.666 0.534 2.909-0.46 3.733-2.972 0.829-2.512 1.597-3.702 2.285-3.571 0.694 0.132 1.112-1.518 1.252-4.96 0.135-3.442 0.195-5.167 0.195-5.167v-5.349l0.019-0.010z" />
<glyph unicode="&#xe91f;" glyph-name="menu" d="M136.533 721.067c0 18.851 15.282 34.133 34.133 34.133h682.667c18.852 0 34.133-15.282 34.133-34.133s-15.281-34.133-34.133-34.133h-682.667c-18.851 0-34.133 15.282-34.133 34.133zM136.533 448c0 18.852 15.282 34.133 34.133 34.133h477.867c18.852 0 34.133-15.281 34.133-34.133s-15.281-34.133-34.133-34.133h-477.867c-18.851 0-34.133 15.281-34.133 34.133zM170.667 209.067c-18.851 0-34.133-15.281-34.133-34.133s15.282-34.133 34.133-34.133h307.2c18.852 0 34.133 15.281 34.133 34.133s-15.281 34.133-34.133 34.133h-307.2z" />
<glyph unicode="&#xe920;" glyph-name="minus" d="M232.727 448c0 25.707 20.839 46.545 46.545 46.545h465.455c25.707 0 46.545-20.838 46.545-46.545s-20.838-46.545-46.545-46.545h-465.455c-25.706 0-46.545 20.838-46.545 46.545z" />
<glyph unicode="&#xe921;" glyph-name="miscellaneous" d="M187.369 140.8h647.741c22.808 0 44.691 8.803 60.89 24.494s25.399 37.001 25.6 59.286v335.128c-0.201 22.289-9.4 43.599-25.6 59.289s-38.083 24.494-60.89 24.493h-281.197c-6.236-0.066-12.329 1.811-17.401 5.36-5.069 3.549-8.851 8.584-10.793 14.375l-11.431 34.258c-5.82 16.824-16.889 31.441-31.652 41.795s-32.478 15.922-50.65 15.922h-243.092c-22.808 0.001-44.693-8.802-60.891-24.493s-25.4-37-25.601-59.289v-446.838c0.195-22.033 9.186-43.121 25.057-58.767 15.871-15.65 37.368-24.624 59.911-25.013zM167.957 690.618c5.14 5.161 12.058 8.271 19.412 8.728h244.616c6.236 0.066 12.332-1.812 17.401-5.36 5.072-3.549 8.851-8.584 10.796-14.375l11.431-34.257c5.895-16.715 17.009-31.202 31.771-41.421 14.766-10.22 32.437-15.66 50.528-15.551h282.72c7.752-0.096 15.155-3.147 20.637-8.503 5.482-5.359 8.605-12.595 8.701-20.169v-335.128c-0.096-7.574-3.219-14.81-8.701-20.166s-12.885-8.407-20.637-8.506h-647.739c-7.75 0.099-15.156 3.151-20.637 8.506s-8.603 12.592-8.702 20.166v446.838c0.269 7.197 3.263 14.039 8.403 19.2zM207.181 550.4h228.612c7.581 0 14.848 2.942 20.207 8.178 5.359 5.239 8.373 12.343 8.373 19.75s-3.014 14.51-8.373 19.746c-5.359 5.239-12.626 8.182-20.207 8.182h-228.612c-7.579 0-14.848-2.942-20.207-8.182-5.359-5.236-8.37-12.339-8.37-19.746s3.011-14.51 8.37-19.75c5.359-5.236 12.628-8.178 20.207-8.178z" />
<glyph unicode="&#xe922;" glyph-name="move" d="M744.727 634.182h-465.455v69.818h465.455v-69.818zM744.727 448h-465.455v69.818h465.455v-69.818zM279.273 261.818h465.455v69.818h-465.455v-69.818z" />
<glyph unicode="&#xe923;" glyph-name="note" d="M510.525 527.186c5.803 0 11.476-1.72 16.299-4.946 4.826-3.222 8.588-7.806 10.807-13.165 2.222-5.362 2.802-11.264 1.669-16.954-1.13-5.69-3.925-10.919-8.028-15.022s-9.332-6.898-15.022-8.032c-5.693-1.133-11.592-0.55-16.954 1.669-5.359 2.222-9.943 5.984-13.165 10.807-3.226 4.826-4.946 10.499-4.946 16.302 0 7.782 3.092 15.244 8.595 20.746s12.964 8.595 20.746 8.595zM613.188 497.845c0-5.803 1.72-11.476 4.946-16.302 3.222-4.823 7.806-8.585 13.165-10.807 5.362-2.219 11.261-2.802 16.954-1.669 5.69 1.133 10.919 3.929 15.022 8.032s6.898 9.332 8.028 15.022c1.133 5.69 0.553 11.592-1.669 16.954-2.219 5.359-5.98 9.943-10.807 13.165-4.823 3.226-10.496 4.946-16.299 4.946-3.854 0-7.67-0.758-11.23-2.232s-6.793-3.635-9.516-6.362c-2.727-2.724-4.888-5.96-6.362-9.516-1.475-3.56-2.232-7.376-2.232-11.23zM349.181 497.845c0-5.803 1.72-11.476 4.946-16.302 3.222-4.823 7.806-8.585 13.169-10.807 5.359-2.219 11.261-2.802 16.951-1.669s10.919 3.929 15.022 8.032c4.103 4.103 6.898 9.332 8.032 15.022 1.13 5.69 0.55 11.592-1.673 16.954-2.219 5.359-5.98 9.943-10.803 13.165-4.826 3.226-10.499 4.946-16.302 4.946-7.776-0.007-15.234-3.103-20.729-8.602-5.495-5.502-8.612-12.964-8.612-20.739zM861.665 222.7c16.507-16.503 25.781-38.888 25.784-62.228 0-23.34-9.267-45.725-25.771-62.232-16.5-16.503-38.885-25.777-62.222-25.781-23.34-0.003-45.725 9.267-62.232 25.767l-160.915 160.679c-3.42 3.417-5.946 7.629-7.345 12.257l-35.082 115.459c-1.526 5.028-1.673 10.373-0.427 15.476s3.837 9.779 7.506 13.541c3.669 3.758 8.281 6.465 13.353 7.834s10.417 1.352 15.479-0.051l118.405-32.802c4.878-1.348 9.322-3.936 12.902-7.509l160.563-160.41zM622.978 295.113l108.67-108.435 41.489 41.492-108.268 108.001-59.566 16.497 17.674-57.556zM820.313 181.074l-5.659 5.659-41.489-41.492 5.632-5.632c2.693-2.854 5.929-5.14 9.523-6.721 3.591-1.584 7.462-2.427 11.387-2.485s7.82 0.672 11.459 2.147c3.635 1.475 6.939 3.663 9.718 6.438 2.775 2.775 4.966 6.076 6.441 9.714 1.478 3.635 2.212 7.53 2.154 11.455-0.055 3.922-0.898 7.796-2.475 11.39-1.58 3.591-3.837 6.833-6.69 9.527zM528.415 215.402c-5.366-0.239-10.916-0.348-16.309-0.348-46.254-0.177-92.099 8.687-134.953 26.098-7.206 2.973-15.295 2.973-22.501 0l-133.558-56.323 45.002 106.609c2.151 5.11 2.812 10.721 1.906 16.189s-3.343 10.568-7.028 14.708c-41.931 45.53-65.379 105.059-65.76 166.956 0 151.799 142.114 275.494 316.787 275.494 174.674 0 316.812-123.694 316.812-275.494-0.324-37.386-9.332-74.185-26.307-107.496-3.226-6.946-3.604-14.879-1.062-22.101 2.546-7.219 7.81-13.162 14.677-16.555 6.864-3.393 14.783-3.966 22.064-1.601 7.284 2.369 13.353 7.489 16.91 14.268 20.982 41.387 32.061 87.084 32.372 133.485 0 184.252-168.424 334.176-375.467 334.176s-375.467-149.924-375.467-334.176c0.15-69.789 24.296-137.404 68.389-191.498l-66.082-156.682c-2.265-5.376-2.877-11.305-1.757-17.029s3.922-10.988 8.047-15.111c4.125-4.127 9.386-6.929 15.111-8.049s11.654-0.509 17.030 1.758l189.102 79.79c46.592-17.319 95.921-26.112 145.626-25.962 6.25 0 12.605 0.133 18.773 0.399 3.915 0.082 7.776 0.942 11.353 2.536s6.796 3.891 9.472 6.748c2.679 2.86 4.755 6.226 6.11 9.899 1.355 3.676 1.959 7.584 1.782 11.496s-1.14 7.748-2.823 11.284c-1.686 3.533-4.062 6.697-6.987 9.298-2.929 2.601-6.345 4.594-10.052 5.854s-7.629 1.768-11.537 1.488l0.324-0.109z" />
<glyph unicode="&#xe924;" d="M512 823.467c74.26 0 146.852-22.021 208.599-63.277 61.744-41.257 109.868-99.897 138.288-168.505 28.416-68.608 35.854-144.101 21.364-216.934-14.486-72.834-50.248-139.735-102.755-192.246-52.511-52.507-119.412-88.269-192.246-102.755-72.834-14.49-148.326-7.052-216.934 21.364-68.608 28.419-127.248 76.544-168.505 138.288-41.257 61.747-63.277 134.339-63.277 208.599 0 99.581 39.558 195.082 109.971 265.495s165.915 109.971 265.495 109.971v0z" />
<glyph unicode="&#xe925;" d="M284.334 149.432c-12.699 9.684-24.774 20.173-36.148 31.403 10.956 23.859 25.152 46.213 42.269 66.4 31.953 37.68 73.020 66.553 119.291 83.869-27.327 16.561-49.886 39.933-65.475 67.826-15.586 27.894-23.665 59.358-23.447 91.31 0 49.65 19.723 97.263 54.829 132.372 35.106 35.107 82.722 54.83 132.372 54.83 49.647 0 97.263-19.723 132.372-54.83 35.106-35.109 54.828-82.721 54.828-132.372 0.218-31.952-7.861-63.416-23.45-91.31-15.585-27.894-38.147-51.265-65.475-67.826 46.715-16.63 88.211-45.288 120.306-83.084 18.401-21.675 33.341-45.909 44.401-71.844-11.803-11.247-24.289-21.678-37.362-31.239-14.967 41.288-41.062 77.868-75.657 105.547-42.534 34.021-95.375 52.559-149.839 52.559-54.467 0-107.308-18.538-149.839-52.559-33.336-26.668-58.78-61.607-73.981-101.052zM391.26 568.235c-15.425-23.088-23.658-50.227-23.658-77.995 0.106-37.205 14.937-72.858 41.25-99.164 26.31-26.307 61.966-41.131 99.174-41.23 27.764 0.007 54.907 8.247 77.988 23.678 23.084 15.428 41.076 37.356 51.695 63.010 10.622 25.655 13.397 53.883 7.977 81.114s-18.794 52.244-38.431 71.875c-19.633 19.633-44.65 33-71.881 38.415-27.235 5.415-55.46 2.632-81.114-7.995-25.651-10.626-47.575-28.621-63-51.709z" />
<glyph unicode="&#xe926;" glyph-name="pc" d="M843.465 789.333h-662.932c-24.262 0-44-19.791-44-44.118v-438.237c0-24.327 19.738-44.117 44-44.117h215.601v-108.824h-118.801c-12.15 0-22-9.878-22-22.060s9.85-22.060 22-22.060h469.333c12.151 0 21.999 9.878 21.999 22.060s-9.847 22.060-21.999 22.060h-118.801v108.824h215.6c24.262 0 44.001 19.791 44.001 44.117v438.237c0 24.327-19.739 44.118-44.001 44.118zM583.868 154.037h-143.735v108.824h143.735v-108.824zM843.465 306.978c-19.296 0-647.467 0-662.932 0v438.237h662.932c0.031-447.757 0.147-438.237 0-438.237z" />
<glyph unicode="&#xe927;" glyph-name="plus" d="M558.545 680.727c0 25.706-20.838 46.545-46.545 46.545s-46.545-20.839-46.545-46.545v-186.182h-186.182c-25.706 0-46.545-20.838-46.545-46.545s20.839-46.545 46.545-46.545h186.182v-186.182c0-25.707 20.838-46.545 46.545-46.545s46.545 20.838 46.545 46.545v186.182h186.182c25.707 0 46.545 20.838 46.545 46.545s-20.838 46.545-46.545 46.545h-186.182v186.182z" />
<glyph unicode="&#xe928;" glyph-name="question" d="M506.554 680.726c-91.96 0-134.192-50.714-134.192-84.942 0-24.722 22.478-36.132 40.87-36.132 36.784 0 21.798 48.812 91.279 48.812 34.053 0 61.305-13.948 61.305-43.106 0-34.228-38.153-53.88-60.63-71.627-19.754-15.844-45.636-41.835-45.636-96.354 0-32.959 9.535-42.468 37.463-42.468 33.378 0 40.187 13.945 40.187 25.991 0 32.959 0.684 51.973 38.144 79.23 18.39 13.312 76.288 56.421 76.288 116.004s-57.893 104.592-145.078 104.592zM512 792.436c-190.227 0-344.439-154.21-344.439-344.436s154.21-344.436 344.439-344.436c190.227 0 344.436 154.21 344.436 344.436s-154.21 344.436-344.436 344.436zM111.71 448c0 221.074 179.218 400.29 400.29 400.29s400.291-179.216 400.291-400.29c0-221.077-179.223-400.291-400.291-400.291-221.075 0-400.29 179.214-400.29 400.291zM512 209.068c28.276 0 51.2 22.924 51.2 51.2s-22.924 51.2-51.2 51.2c-28.276 0-51.2-22.924-51.2-51.2s22.924-51.2 51.2-51.2z" />
<glyph unicode="&#xe929;" glyph-name="recommend" d="M862.096 404.136c14.853 22.086 22.267 46.397 22.267 72.951 0 30.734-11.501 57.429-34.527 80.127-23.035 22.674-50.311 34.009-81.822 34.009h-80.007c14.545 29.535 21.825 58.182 21.825 85.925 0 34.91-5.315 62.655-15.914 83.243-10.608 20.594-26.065 35.732-46.369 45.433-20.312 9.697-43.185 14.54-68.636 14.54-15.462 0-29.096-5.519-40.913-16.562-13.028-12.529-22.426-28.645-28.179-48.338-5.758-19.686-10.384-38.561-13.866-56.612s-8.862-30.805-16.133-38.263c-14.854-15.813-31.064-34.913-48.641-57.288-30.606-39.081-51.367-62.207-62.271-69.371h-124.546c-16.061 0-29.775-5.602-41.14-16.781-11.359-11.191-17.043-24.692-17.043-40.508v-286.422c0-15.811 5.678-29.31 17.043-40.499 11.371-11.19 25.079-16.789 41.14-16.789h130.903c6.668 0 27.574-5.967 62.727-17.901 37.276-12.833 70.077-22.602 98.409-29.319 28.337-6.712 57.051-10.072 86.142-10.072h58.638c42.724 0 77.117 12.018 103.177 36.035 26.056 24.022 38.94 56.767 38.642 98.239 18.181 22.975 27.271 49.529 27.271 79.658 0 6.563-0.447 12.977-1.359 19.247 11.511 19.982 17.278 41.467 17.278 64.442-0.005 10.743-1.364 21.039-4.096 30.878zM293.912 198.717c-5.757-5.665-12.574-8.509-20.453-8.509-7.881 0-14.7 2.844-20.459 8.509-5.755 5.665-8.636 12.376-8.636 20.145 0 7.754 2.874 14.466 8.636 20.136 5.765 5.669 12.578 8.504 20.459 8.504 7.879 0 14.696-2.835 20.453-8.504 5.759-5.669 8.638-12.381 8.638-20.136 0-7.768-2.88-14.48-8.638-20.145zM816.431 440.367c-6.516-13.722-14.625-20.731-24.32-21.029 4.543-5.073 8.332-12.167 11.362-21.257 3.030-9.104 4.534-17.38 4.534-24.841 0-20.578-8.020-38.335-24.083-53.248 5.464-9.542 8.187-19.842 8.187-30.874 0-11.041-2.648-22.007-7.955-32.894-5.297-10.878-12.497-18.716-21.588-23.487 1.513-8.946 2.267-17.306 2.267-25.060 0-49.822-29.096-74.738-87.282-74.738h-54.984c-39.708 0-91.518 10.887-155.466 32.67-1.517 0.596-5.905 2.169-13.182 4.701s-12.654 4.399-16.141 5.585c-3.487 1.206-8.785 2.918-15.911 5.153-7.125 2.239-12.875 3.882-17.273 4.925-4.391 1.038-9.395 2.011-14.996 2.904-5.604 0.898-10.379 1.341-14.318 1.341h-14.545v286.413h14.545c4.848 0 10.226 1.345 16.136 4.026 5.908 2.686 11.972 6.712 18.183 12.083 6.214 5.373 12.042 10.668 17.5 15.893 5.456 5.22 11.515 11.783 18.185 19.686 6.666 7.91 11.893 14.247 15.683 19.022 3.786 4.773 8.557 10.893 14.315 18.351s9.244 11.934 10.454 13.427c16.668 20.285 28.332 33.86 34.998 40.726 12.428 12.826 21.439 29.161 27.048 49.002 5.613 19.845 10.231 38.568 13.857 56.167 3.631 17.602 9.398 30.286 17.287 38.044 29.082 0 48.482-7.008 58.177-21.033 9.691-14.021 14.541-35.655 14.541-64.894 0-17.602-7.28-41.544-21.825-71.826-14.545-30.284-21.811-54.079-21.811-71.383h160c15.165 0 28.644-5.74 40.457-17.233 11.823-11.485 17.743-24.834 17.743-40.055-0.005-10.44-3.267-22.528-9.779-36.268z" />
<glyph unicode="&#xe92a;" glyph-name="remove" d="M853.333 591.503v-287.007c0-49.862-19.418-96.737-54.675-131.994-5.615-3.963-51.975-65.836-143.155-65.836h-287.007c-91.171 0-137.482 61.833-143.157 65.836-35.256 35.256-54.673 82.132-54.673 131.994v287.007c0 49.862 19.417 96.738 54.673 131.994 5.616 3.963 51.974 65.836 143.157 65.836h287.007c91.17 0 137.482-61.832 143.155-65.836 35.26-35.256 54.675-82.133 54.675-131.994zM800 591.503c0 35.615-13.868 69.098-39.052 94.281-5.844 4.201-38.277 50.216-105.445 50.216h-287.007c-66.807 0-99.799-46.156-105.445-50.216-25.183-25.183-39.052-58.665-39.052-94.281v-287.007c0-35.615 13.869-69.1 39.052-94.28 5.843-4.202 38.277-50.217 105.445-50.217h287.007c66.806 0 99.799 46.155 105.445 50.217 25.184 25.18 39.052 58.665 39.052 94.28v287.007zM611.912 421.973c14.729 0 26.668 11.94 26.668 26.668s-11.94 26.665-26.668 26.665h-209.78c-14.725 0-26.665-11.936-26.665-26.665s11.94-26.668 26.665-26.668h209.78z" />
<glyph unicode="&#xe92b;" glyph-name="reordering" d="M502.91 225.164l-108.607-95.032c-12.102-10.598-31.776-10.598-43.878 0l-108.609 95.032c-12.118 10.603-12.118 27.792 0 38.395 12.102 10.603 31.776 10.603 43.878 0l55.639-48.687v531.794c0 14.988 13.902 27.152 31.031 27.152s31.031-12.164 31.031-27.152v-531.794l55.639 48.687c6.051 5.306 13.994 7.955 21.939 7.955s15.886-2.648 21.937-7.955c12.12-10.603 12.12-27.792 0-38.395zM782.182 632.44c-12.116-10.603-31.758-10.603-43.874 0l-55.64 48.683v-531.791c0-14.988-13.903-27.15-31.032-27.15s-31.032 12.162-31.032 27.15v531.791l-55.64-48.683c-12.116-10.603-31.772-10.603-43.874 0-12.12 10.603-12.12 27.789 0 38.393l108.609 95.030c6.065 5.308 13.992 7.956 21.937 7.956s15.872-2.648 21.937-7.956l108.609-95.030c12.12-10.603 12.12-27.79 0-38.393z" />
<glyph unicode="&#xe92c;" glyph-name="reroad1" d="M853.36 479.004c-17.175 0-31.004-13.829-31.004-31.004 0-171.134-139.222-310.356-310.356-310.356s-310.354 139.222-310.354 310.356c0 171.135 139.219 310.354 310.354 310.354 93.473 0 180.103-41.188 238.769-112.013h-107.148c-17.175 0-31.009-13.831-31.009-31.005s13.833-31.005 31.009-31.005h174.173c17.175 0 31.004 13.831 31.004 31.005v174.023c0 17.174-13.829 31.005-31.004 31.005s-31.004-13.831-31.004-31.005v-89.671c-70.065 76.449-168.704 120.676-274.79 120.676-205.332 0-372.364-167.032-372.364-372.364s167.032-372.364 372.364-372.364c205.331 0 372.364 167.033 372.364 372.364 0 17.175-13.829 31.004-31.004 31.004z" />
<glyph unicode="&#xe92d;" glyph-name="reroad2" d="M826.303 691.3c1.457 16 15.611 27.789 31.609 26.33 16.002-1.459 27.788-15.612 26.331-31.613l-14.127-154.954c-2.015-22.143-27.443-34.173-45.88-21.032l-125.78 89.835c-13.075 9.338-16.105 27.506-6.768 40.581 9.337 13.074 27.508 16.102 40.583 6.765l41.481-29.625c-55.934 88.258-153.567 144.594-261.753 144.594-118.696 0-223.899-67.67-276.288-170.251-7.308-14.31-24.828-19.984-39.139-12.676-14.309 7.308-19.984 24.831-12.676 39.139 61.903 121.21 186.603 201.97 328.103 201.97 131.533 0 245.053-68.646 310.449-171.346l3.854 42.282zM788.289 304.067c7.308 14.308 24.827 19.982 39.135 12.674s19.987-24.832 12.679-39.14c-61.905-121.209-186.605-201.97-328.104-201.97-131.534 0-245.053 68.645-310.447 171.348l-3.854-42.282c-1.457-15.984-15.591-27.788-31.612-26.331-15.999 1.462-27.788 15.611-26.329 31.614l14.125 154.954c2.036 22.37 27.668 34.039 45.878 21.029l125.783-89.833c13.073-9.342 16.101-27.508 6.765-40.583-9.338-13.075-27.506-16.1-40.581-6.763l-41.479 29.622c55.934-88.255 153.566-144.593 261.751-144.593 118.696 0 223.898 67.672 276.289 170.254z" />
<glyph unicode="&#xe92e;" glyph-name="search" d="M878.292 125.952l-213.545 213.545c41.363 51.091 66.27 116.016 66.27 186.726 0 163.891-133.352 297.243-297.243 297.243-163.889 0-297.24-133.351-297.24-297.24 0-163.891 133.352-297.243 297.243-297.243 70.711 0 135.636 24.907 186.726 66.27l213.545-213.545c6.103-6.1 14.111-9.168 22.122-9.168s16.022 3.069 22.122 9.168c12.233 12.233 12.233 32.010 0 44.244zM433.777 291.564c-129.411 0-234.666 105.254-234.666 234.663s105.254 234.664 234.666 234.664c129.41 0 234.663-105.254 234.663-234.664s-105.257-234.663-234.663-234.663z" />
<glyph unicode="&#xe92f;" d="M705.423 789.333h-386.846c-81.689 0-147.911-66.222-147.911-147.911v-386.846c0-81.688 66.222-147.91 147.911-147.91h386.846c81.688 0 147.91 66.222 147.91 147.91v386.846c0 81.689-66.222 147.911-147.91 147.911z" />
<glyph unicode="&#xe930;" d="M510.863 679.708c137.1 0 248.603-90.454 248.603-201.671 0-44.486-17.295-84.309-53.306-124.133-51.937-60.017-168.902-133.062-195.413-144.268-25.771-10.895-22.777 6.113-21.6 12.817 0.034 0.195 0.065 0.375 0.096 0.55l3.642 20.879c1.461 7.547 1.188 15.329-0.795 22.757-2.789 6.939-13.769 10.523-21.903 12.288-119.409 15.872-207.872 99.383-207.872 199.11 0 111.217 111.445 201.671 248.549 201.671zM370.971 440.89v86.016c0 1.28-0.509 2.512-1.417 3.417-0.905 0.908-2.137 1.417-3.42 1.417h-17.408c-1.28 0-2.512-0.509-3.417-1.417-0.908-0.905-1.417-2.137-1.417-3.417v-108.090c0-1.242 0.464-2.441 1.307-3.355 0.915-0.843 2.113-1.311 3.355-1.311h69.803c1.283 0 2.516 0.512 3.42 1.417 0.908 0.908 1.417 2.137 1.417 3.42v17.067c0 1.283-0.509 2.512-1.417 3.42-0.905 0.905-2.137 1.417-3.42 1.417h-47.387zM460.401 531.739h-17.463c-1.283 0-2.512-0.509-3.42-1.417-0.908-0.905-1.417-2.137-1.417-3.417v-108.090c0-1.283 0.509-2.512 1.417-3.42 0.908-0.905 2.137-1.417 3.42-1.417h17.463c1.283 0 2.512 0.512 3.42 1.417 0.908 0.908 1.417 2.137 1.417 3.42v108.090c0 1.28-0.509 2.512-1.417 3.417-0.908 0.908-2.137 1.417-3.42 1.417zM580.267 531.739h-17.067c-1.283 0-2.512-0.509-3.42-1.417-0.905-0.905-1.417-2.137-1.417-3.417v-64.341l-50.231 67.526-0.287 0.283h-19.34c-1.283 0-2.512-0.509-3.42-1.417-0.908-0.905-1.417-2.137-1.417-3.417v-108.090c0-1.283 0.509-2.512 1.417-3.42 0.908-0.905 2.137-1.417 3.42-1.417h17.408c1.287 0 2.522 0.509 3.437 1.413 0.918 0.905 1.44 2.137 1.454 3.424v65.478l49.664-67.072c0.314-0.495 0.744-0.905 1.253-1.195h0.625c0.249-0.3 0.536-0.57 0.853-0.795h17.067c1.283 0 2.512 0.509 3.42 1.417 0.905 0.908 1.417 2.137 1.417 3.42v108.087c0 1.283-0.512 2.512-1.417 3.42-0.908 0.908-2.137 1.417-3.42 1.417v0.113zM676.977 504.89c0.635 0 1.266 0.123 1.85 0.365 0.587 0.246 1.12 0.601 1.57 1.051 0.451 0.447 0.806 0.98 1.048 1.567s0.369 1.215 0.369 1.85v17.183c0 1.28-0.509 2.512-1.417 3.417-0.908 0.908-2.137 1.417-3.42 1.417h-69.973c-1.253-0.003-2.458-0.492-3.355-1.365-0.437-0.44-0.785-0.966-1.017-1.539-0.236-0.577-0.352-1.195-0.348-1.816v-108.090c-0.003-0.621 0.113-1.239 0.348-1.812 0.232-0.577 0.58-1.103 1.017-1.543 0.898-0.874 2.103-1.362 3.355-1.365h69.973c1.283 0 2.512 0.509 3.42 1.417s1.417 2.137 1.417 3.42v17.009c0 1.283-0.509 2.512-1.417 3.42-0.908 0.905-2.137 1.417-3.42 1.417h-47.671v18.487h47.671c1.283 0 2.512 0.512 3.42 1.417 0.908 0.908 1.417 2.137 1.417 3.42v17.295c0 0.635-0.126 1.263-0.369 1.85s-0.597 1.12-1.048 1.567c-0.451 0.451-0.983 0.806-1.57 1.048-0.584 0.246-1.215 0.369-1.85 0.369h-47.671v18.548h47.671z" />
<glyph unicode="&#xe931;" d="M170.667 686.933c0 56.554 45.846 102.4 102.4 102.4h477.867c56.556 0 102.4-45.846 102.4-102.4v-477.867c0-56.556-45.844-102.4-102.4-102.4h-477.867c-56.554 0-102.4 45.844-102.4 102.4v477.867z" />
<glyph unicode="&#xe932;" d="M273.067 453.751c0 28.177 7.161 51.149 21.483 68.919 14.322 17.947 34.495 27.191 60.519 27.73 27.948 0 48.643-9.243 62.092-27.73s20.173-40.83 20.173-67.034c0-28.358-7.247-51.422-21.743-69.192-14.322-17.589-34.495-26.651-60.522-27.191-27.77 0-48.38 9.155-61.829 27.46-13.449 18.487-20.173 40.834-20.173 67.038zM308.435 454.018c0-19.203 3.755-34.908 11.266-47.111 7.51-12.206 19.213-18.309 35.108-18.309 14.322 0 25.76 5.475 34.318 16.422 8.561 10.95 12.838 27.822 12.838 50.616 0 19.023-3.755 34.639-11.264 46.845-7.509 12.203-19.214 18.306-35.106 18.306-13.974 0-25.326-6.014-34.059-18.039s-13.1-28.266-13.1-48.729z" />
<glyph unicode="&#xe933;" d="M575.461 512.98c-7.687 2.331-13.974 4.127-18.865 5.383-4.891 1.437-11.179 2.154-18.862 2.154-14.148 0-25.064-5.922-32.751-17.77-7.683-11.844-11.527-28.088-11.527-48.729 0-17.766 3.232-33.113 9.694-46.036s17.292-19.384 32.488-19.384c7.509 0 14.496 0.809 20.958 2.423 6.639 1.615 12.663 3.591 18.077 5.922l12.838-25.846c-6.81-3.587-15.019-6.461-24.627-8.615-9.605-2.154-18.077-3.229-25.412-3.229-27.771 0-47.944 9.155-60.518 27.46-12.578 18.306-18.865 40.653-18.865 67.038 0 28.177 6.898 51.241 20.698 69.188 13.974 17.947 33.969 26.921 59.996 26.921 5.239 0 12.486-0.898 21.743-2.69 9.257-1.795 17.729-4.847 25.416-9.155l-10.479-25.037z" />
<glyph unicode="&#xe934;" d="M666.047 517.018h-20.958v-55.999h21.484c10.131 0 18.514 2.065 25.149 6.192 6.639 4.308 9.957 11.308 9.957 20.999 0 10.23-3.144 17.589-9.431 22.077-6.287 4.485-15.022 6.731-26.201 6.731zM714.779 363.022l-37.728 69.997c-1.922-0.177-3.929-0.358-6.025-0.536-2.096 0-4.192 0-6.287 0h-19.651v-69.461h-33.795v183.071h55.801c19.388 0 35.98-4.577 49.78-13.732 13.797-9.151 20.698-23.33 20.698-42.534 0-11.308-2.884-21.091-8.646-29.348-5.591-8.076-12.838-14.356-21.746-18.845l43.752-78.612h-36.154z" />
<glyph unicode="&#xe935;" d="M170.667 686.933c0 56.554 45.846 102.4 102.4 102.4h477.867c56.556 0 102.4-45.846 102.4-102.4v-477.867c0-56.556-45.844-102.4-102.4-102.4h-477.867c-56.554 0-102.4 45.844-102.4 102.4v477.867z" />
<glyph unicode="&#xe936;" d="M349.856 498.722h49.401v-45.571h-59.916v-29.867l-26.168 10.039c-9.293-30.638-21.032-57.416-34.727-81.101l30.080-20.084c15.407 25.231 27.391 54.842 35.95 88.313h50.135c-8.069-24.204-26.9-40.94-62.118-56.644l18.83-33.727c29.102 12.356 54.050 36.045 69.212 64.365 15.65-27.29 40.107-50.978 67.987-64.365l17.606 33.727c-33.26 16.48-54.289 35.533-63.095 56.644h60.406v32.7h-11.981v79.299h-54.784v30.897h-37.417v-30.897h-49.401v-33.727zM338.853 467.825c-13.206 12.616-28.124 25.231-44.999 37.85l-20.788-26.262c15.896-12.36 30.814-25.491 44.754-38.881l21.032 27.293zM282.849 535.026c17.364-13.647 30.815-24.975 40.597-34.246l20.789 27.293c-12.23 11.329-25.68 22.402-40.354 33.215l-21.032-26.262zM456.731 453.151h-20.057v45.571h20.057v-45.571z" />
<glyph unicode="&#xe937;" d="M553.82 431.264c-9.049-29.351-20.053-55.613-33.505-79.043l30.082-20.084c6.601 11.329 13.206 24.975 19.319 40.68 6.601 15.964 11.493 31.153 15.162 46.087l-31.058 12.36zM574.853 435.9c1.71 0.256 4.4 1.027 8.803 2.058l10.025 2.318v-19.569c0-29.867-7.335-50.463-25.433-70.287l32.038-21.886c10.759 12.616 18.097 26.006 22.743 40.424h67.499v-35.789h36.929v107.107c3.669-0.771 8.803-2.058 16.384-3.348l7.093 31.669c-20.787 4.12-39.619 8.499-55.76 12.875 14.432 10.042 26.658 20.855 36.929 32.956h12.23v31.669h-65.789v21.371h-38.397v-21.371h-62.116v-8.496c-10.516 9.011-20.541 16.992-29.59 23.689l-21.033-26.262c17.364-13.647 30.812-24.975 40.352-34.246l10.759 13.647h29.348l-18.097-12.616c9.537-8.496 19.077-15.189 28.368-21.111-13.449-3.604-26.412-7.209-39.127-10.042-14.186 13.131-28.126 24.716-42.066 35.017l-20.787-26.262c15.896-12.36 30.816-25.235 44.756-38.881l10.513 13.647 3.427-18.278zM628.9 398.824c0.242 3.86 0.734 8.752 0.976 15.705h60.652v-15.705h-61.628zM629.876 450.574c9.783 3.348 19.077 6.697 27.392 10.557 9.537-3.86 20.541-7.468 33.26-11.329v-5.663h-60.652v6.434zM657.268 495.374c-11.005 5.407-20.545 11.588-29.102 19.053h57.225c-7.581-7.209-16.872-13.387-28.122-19.053z" />
<glyph unicode="&#xe938;" d="M472.823 759.292c18.316 28.551 60.039 28.551 78.355 0l116.387-181.433c19.875-30.979-2.369-71.678-39.173-71.678h-232.781c-36.805 0-59.050 40.699-39.177 71.678l116.389 181.433z" />
<glyph unicode="&#xe939;" d="M551.177 136.709c-18.316-28.551-60.039-28.551-78.355 0l-116.389 181.434c-19.873 30.976 2.372 71.675 39.177 71.675h232.781c36.803 0 59.048-40.699 39.173-71.675l-116.387-181.434z" />
<glyph unicode="&#xe93a;" glyph-name="sort_unselected" d="M551.177 759.292c-18.316 28.551-60.039 28.551-78.355 0l-116.39-181.433c-19.873-30.979 2.372-71.678 39.177-71.678h232.777c36.808 0 59.052 40.699 39.177 71.678l-116.387 181.433zM472.823 136.709c18.316-28.551 60.039-28.551 78.355 0l116.387 181.43c19.875 30.981-2.369 71.68-39.177 71.68h-232.777c-36.805 0-59.050-40.699-39.177-71.68l116.39-181.43z" />
<glyph unicode="&#xe93b;" d="M472.823 759.292c18.316 28.551 60.039 28.551 78.355 0l116.387-181.433c19.875-30.979-2.369-71.678-39.173-71.678h-232.781c-36.805 0-59.050 40.699-39.177 71.678l116.389 181.433z" />
<glyph unicode="&#xe93c;" d="M551.177 136.709c-18.316-28.551-60.039-28.551-78.355 0l-116.389 181.434c-19.873 30.976 2.372 71.675 39.177 71.675h232.781c36.803 0 59.048-40.699 39.173-71.675l-116.387-181.434z" />
<glyph unicode="&#xe93d;" glyph-name="sort" d="M551.177 322.89c-18.316-28.551-60.039-28.551-78.355 0l-116.389 181.432c-19.873 30.979 2.372 71.678 39.177 71.678h232.781c36.803 0 59.048-40.699 39.173-71.678l-116.387-181.432z" />
<glyph unicode="&#xe93e;" glyph-name="sp" d="M723.094 722.551v-549.102c0.519-17.050-6.018-33.857-18.425-46.65-12.414-12.793-29.771-20.132-47.616-20.132h-289.393c-36.819 0-66.781 29.955-66.781 66.782v549.102c0 36.82 29.963 66.783 66.781 66.783h288.652c36.826 0 66.782-29.963 66.782-66.783zM657.053 151.187c5.967 0 11.523 2.345 15.657 6.618 3.956 4.076 6.042 9.397 5.871 14.978v55.572h-333.179v-54.907c0-12.271 9.987-22.262 22.258-22.262h289.393zM345.402 272.876h333.175l-0.003 385.122h-333.172v-385.122zM345.402 702.519h333.172v20.032c0 12.273-9.991 22.261-22.262 22.261h-288.652c-12.271 0-22.258-9.988-22.258-22.261v-20.032zM493.807 212.774h37.103c12.295 0 22.258-9.967 22.258-22.262 0-12.298-9.964-22.262-22.258-22.262h-37.103c-12.295 0-22.262 9.964-22.262 22.262 0 12.295 9.967 22.262 22.262 22.262z" />
<glyph unicode="&#xe93f;" glyph-name="star_off" d="M820.159 455.731c34.974 34.22 15.616 93.73-32.838 100.76l-154.801 16.478c-0.517 0.096-1.843 1.062-2.532 2.46l-65.541 163.739c-10.691 21.782-29.882 33.643-51.079 34.65-23.808-1.006-43.013-12.878-52.806-32.748l-67.223-167.514c0.151 0.492-1.199-0.489-2.783-0.721l-152.714-16.215c-49.514-7.163-68.864-66.744-33.802-100.95l112.297-110.834c1.235-1.21 1.755-2.816 1.483-4.413l-25.549-149.015c-8.29-48.282 42.408-85.113 85.772-62.301l133.854 70.363c0.27 0.042 134.2-70.367 134.2-70.367 43.38-22.793 94.036 14.006 85.797 62.287l-25.591 149.071c-0.261 1.555 0.251 3.142 1.401 4.254l112.454 111.016zM652.767 331.311l25.586-149.085c0.67-3.91-3.449-6.898-6.986-5.041l-133.827 70.367c-7.405 3.873-15.327 5.916-23.617 6.479h-3.672c-8.336-0.563-16.282-2.607-23.65-6.493l-133.839-70.353c-3.518-1.853-7.627 1.131-6.956 5.041l25.556 149.053c3.266 19.191-3.064 38.712-16.954 52.303l-112.323 110.857c-2.966 2.893-1.395 7.73 2.529 8.299l152.743 16.22c20.297 2.947 36.916 15.018 45.538 32.463l67.234 167.542c-0.042-0.275 1.219 0.505 3.235 0.601-0.568-0.095 0.717-0.889 1.536-2.55l65.503-163.664c9.421-19.35 26.056-31.443 45.317-34.259l154.829-16.484c2.895-0.44 4.468-5.276 1.61-8.062l-112.496-111.053c-13.815-13.466-20.163-33.001-16.896-52.182z" />
<glyph unicode="&#xe940;" glyph-name="star_on" d="M787.321 556.491c48.454-7.030 67.812-66.54 32.838-100.76l-112.454-111.016c-1.15-1.112-1.662-2.7-1.401-4.254l25.591-149.071c8.239-48.282-42.417-85.080-85.797-62.287 0 0-133.93 70.409-134.2 70.367l-133.854-70.363c-43.364-22.812-94.062 14.019-85.772 62.301l25.549 149.015c0.272 1.597-0.248 3.202-1.483 4.413l-112.297 110.834c-35.062 34.206-15.712 93.787 33.802 100.95l152.714 16.215c0.788 0.115 1.517 0.416 2.034 0.628 0.522 0.215 0.825 0.339 0.749 0.092l67.223 167.514c9.794 19.87 28.998 31.742 52.806 32.748 21.197-1.007 40.387-12.868 51.079-34.65l65.541-163.739c0.689-1.399 2.015-2.364 2.532-2.46l154.801-16.478z" />
<glyph unicode="&#xe941;" glyph-name="trash" d="M438.863 230.202c0.935-13.431-9.199-25.078-22.63-26.010h-1.754c-12.817-0.034-23.473 9.865-24.381 22.647l-24.381 341.333c-0.956 13.466 9.182 25.156 22.647 26.112s25.156-9.185 26.112-22.651l24.388-341.432zM512 594.285c-13.466 0-24.381-10.916-24.381-24.381v-341.333c0-13.466 10.916-24.381 24.381-24.381s24.381 10.916 24.381 24.381v341.333c0 13.466-10.916 24.381-24.381 24.381zM609.522 571.638c0.956 13.466 12.646 23.607 26.112 22.651 13.466-0.959 23.607-12.65 22.651-26.112l-24.381-341.333c-0.908-12.783-11.564-22.682-24.381-22.651h-1.731l-0.123 0.010c-13.428 0.986-23.514 12.674-22.528 26.102l24.381 341.333zM633.904 691.809h170.667c13.466 0 24.381-10.914 24.381-24.38s-10.916-24.381-24.381-24.381h-26.501l-46.64-514.218c-1.154-12.592-11.738-22.214-24.381-22.163h-390.097c-12.644-0.051-23.231 9.571-24.381 22.163l-46.641 514.218h-26.501c-13.464 0-24.381 10.914-24.381 24.38s10.916 24.381 24.381 24.381h170.666v24.381c0 40.395 32.748 73.143 73.144 73.143h97.526c40.393 0 73.141-32.747 73.141-73.143v-24.381zM463.237 740.572c-13.466 0-24.381-10.915-24.381-24.381v-24.381h146.289v24.381c0 13.466-10.916 24.381-24.381 24.381h-97.526zM339.212 155.43h345.575l44.326 487.618h-434.103l44.203-487.618z" />
<glyph unicode="&#xe942;" glyph-name="view_off" d="M169.726 138.64l651.634 651.634 32.917-32.912-651.639-651.639-32.912 32.917zM283.554 252.272c70.519-45.158 148.619-75.059 228.446-75.059 156.849 0 306.972 115.386 406.063 235.143 17.129 20.699 17.129 50.749 0 71.447 0 1.117-64.94 79.34-146.893 138.99-24.069 17.521-47.965 32.641-71.731 45.363l-38.512-38.513c105.956-52.002 188.081-143.313 217.386-178.729-0.023 0 0.023-0.070 0.107-0.2 0.442-0.68 1.95-2.984-0.107-5.469-42.012-50.772-192.596-216.436-366.313-216.436-69.095 0-134.533 26.21-190.933 60.975l-37.513-37.511zM281.755 316.295c-65.767 48.17-114.81 103.266-136.066 128.95-1.357 1.643-1.357 4.026 0 5.669 42.013 50.773 192.598 216.438 366.311 216.438 35.389 0 69.814-6.874 102.558-18.251l40.206 40.204c-134.284 55.181-265.364 32.895-401.932-66.511-69.756-50.776-121.975-108.875-146.893-138.99-17.127-20.699-17.127-50.749 0-71.447 39.183-47.351 86.343-94.017 138.739-133.134l37.077 37.073zM369.090 337.808c33.054-42.743 84.824-70.312 142.91-70.312 99.57 0 180.578 81.008 180.578 180.578 0 58.086-27.569 109.856-70.312 142.91l-36.887-36.887c33.578-23.31 55.603-62.145 55.603-106.023 0-71.121-57.861-128.982-128.982-128.982-43.878 0-82.714 22.025-106.024 55.599l-36.887-36.883zM385.979 420.52l-41.027-41.025c-8.717 21.155-13.528 44.316-13.528 68.58 0 99.57 81.006 180.576 180.577 180.576 24.264 0 47.425-4.81 68.58-13.528l-41.025-41.028c-8.881 1.94-18.102 2.962-27.555 2.962-71.121 0-128.984-57.862-128.984-128.983 0-9.453 1.023-18.674 2.962-27.555z" />
<glyph unicode="&#xe943;" glyph-name="view_on" d="M105.94 412.355c99.107-119.771 249.25-235.143 406.060-235.143 156.849 0 306.972 115.386 406.063 235.143 17.129 20.699 17.129 50.749 0 71.447 0 1.117-64.94 79.34-146.893 138.99-176.035 128.132-342.643 127.885-518.337 0-69.756-50.776-121.975-108.875-146.893-138.99-17.127-20.699-17.127-50.749 0-71.447zM145.689 450.914c42.013 50.773 192.598 216.438 366.311 216.438 173.717 0 324.301-165.665 366.313-216.438-0.023 0 0.023-0.070 0.107-0.2 0.442-0.68 1.95-2.984-0.107-5.469-42.012-50.772-192.596-216.436-366.313-216.436-173.713 0-324.296 165.665-366.311 216.436-1.358 1.643-1.358 4.026 0 5.669zM331.424 448.074c0-99.57 81.006-180.578 180.576-180.578s180.578 81.008 180.578 180.578c0 99.57-81.008 180.576-180.578 180.576s-180.576-81.006-180.576-180.576zM383.017 448.074c0 71.121 57.862 128.983 128.983 128.983s128.982-57.862 128.982-128.983c0-71.121-57.861-128.982-128.982-128.982s-128.983 57.861-128.983 128.982z" />
<glyph unicode="&#xe944;" glyph-name="w_arrow_left" d="M492.716 658.92c12.041 15.055 9.602 37.023-5.455 49.067-15.053 12.044-37.022 9.603-49.066-5.452l-203.628-254.535 203.628-254.534c12.044-15.057 34.013-17.496 49.066-5.455 15.057 12.046 17.496 34.015 5.455 49.068l-168.738 210.921 168.738 210.92zM725.443 658.92c12.041 15.055 9.602 37.023-5.455 49.067-15.053 12.044-37.022 9.603-49.064-5.452l-203.632-254.535 203.632-254.534c12.041-15.057 34.011-17.496 49.064-5.455 15.057 12.046 17.496 34.015 5.455 49.068l-168.737 210.921 168.737 210.92z" />
<glyph unicode="&#xe945;" glyph-name="w_arrow_right" d="M298.559 237.079c-12.044-15.053-9.603-37.022 5.452-49.068 15.055-12.041 37.023-9.602 49.067 5.455l203.629 254.534-203.629 254.535c-12.044 15.055-34.012 17.496-49.067 5.452s-17.496-34.012-5.452-49.067l168.734-210.919-168.734-210.921zM531.284 237.079c-12.041-15.053-9.602-37.022 5.455-49.068 15.053-12.041 37.022-9.602 49.064 5.455l203.632 254.534-203.632 254.535c-12.041 15.055-34.011 17.496-49.064 5.452-15.057-12.044-17.496-34.012-5.455-49.067l168.737-210.919-168.737-210.921z" />
<glyph unicode="&#xe946;" glyph-name="zoom_minus" d="M846.070 114.388c-4.403-4.707-10.496-7.479-16.94-7.707-6.441-0.225-12.715 2.106-17.442 6.489l-121.931 113.64v1.222c-63.171-52.255-144.128-78.005-225.877-71.847-81.746 6.158-157.933 43.742-212.563 104.868-54.631 61.123-83.459 141.036-80.432 222.959 3.026 81.927 37.67 159.493 96.661 216.421s137.741 88.791 219.723 88.901c81.978 0.11 160.816-31.543 219.959-88.314s93.993-134.246 97.239-216.162c3.243-81.917-25.371-161.905-79.838-223.174l121.931-112.91c4.478-4.632 6.943-10.851 6.851-17.292-0.092-6.444-2.731-12.588-7.339-17.094zM755.111 472.381c0 53.053-15.732 104.919-45.21 149.031-29.474 44.114-71.369 78.496-120.388 98.799-49.015 20.303-102.95 25.615-154.986 15.265s-99.834-35.899-137.349-73.414c-37.516-37.515-63.064-85.311-73.414-137.348s-5.038-105.974 15.265-154.989c20.303-49.015 54.685-90.911 98.799-120.385 44.113-29.478 95.975-45.21 149.032-45.21 71.144 0 139.373 28.262 189.682 78.568 50.306 50.306 78.568 118.538 78.568 189.682zM669.757 472.381c0 6.468-2.57 12.67-7.141 17.244-4.574 4.574-10.776 7.141-17.244 7.141h-317.024c-6.468 0-12.67-2.567-17.244-7.141s-7.142-10.776-7.142-17.244c0-6.468 2.569-12.67 7.142-17.244s10.776-7.144 17.244-7.144h317.024c6.468 0 12.67 2.57 17.244 7.144 4.57 4.574 7.141 10.776 7.141 17.244z" />
<glyph unicode="&#xe947;" glyph-name="zoom_pulus" d="M846.694 149.49l-121.883 112.862c54.351 61.379 82.801 141.435 79.367 223.348-3.43 81.913-38.472 159.309-97.768 215.928-59.293 56.619-138.223 88.054-220.208 87.702s-160.642-32.464-219.448-89.59c-58.806-57.126-93.184-134.82-95.912-216.761-2.728-81.937 26.407-161.744 81.284-222.655s131.225-98.185 213.002-103.987c81.78-5.803 162.628 20.313 225.556 72.864v-1.219l121.883-113.596c2.284-2.441 5.041-4.386 8.11-5.714 3.065-1.328 6.373-2.010 9.714-2.007s6.649 0.696 9.711 2.031c3.065 1.335 5.82 3.284 8.1 5.731 2.277 2.444 4.028 5.332 5.144 8.482 1.113 3.151 1.567 6.499 1.335 9.83-0.232 3.335-1.147 6.584-2.69 9.551s-3.676 5.581-6.274 7.687l0.976-0.488zM488.844 204.824c-53.033 0-104.875 15.725-148.97 45.189s-78.464 71.342-98.759 120.34c-20.295 48.995-25.605 102.912-15.259 154.924 10.346 52.016 35.884 99.794 73.385 137.294s85.278 63.038 137.294 73.385c52.012 10.346 105.929 5.036 154.924-15.259 48.998-20.295 90.873-54.664 120.337-98.759s45.193-95.937 45.193-148.973c0-71.113-28.252-139.319-78.537-189.604s-118.49-78.537-189.607-78.537zM671.669 472.965c0-6.465-2.567-12.663-7.137-17.234-4.574-4.574-10.772-7.141-17.237-7.141h-134.072v-134.072c0-6.465-2.567-12.663-7.141-17.237-4.57-4.57-10.769-7.137-17.237-7.137-6.465 0-12.663 2.567-17.234 7.137-4.574 4.574-7.141 10.772-7.141 17.237v134.072h-134.071c-6.465 0-12.666 2.567-17.237 7.141-4.571 4.57-7.14 10.769-7.14 17.234s2.568 12.667 7.14 17.237c4.571 4.574 10.772 7.141 17.237 7.141h134.071v134.071c0 6.465 2.567 12.666 7.141 17.237 4.57 4.571 10.769 7.14 17.234 7.14 6.468 0 12.667-2.568 17.237-7.14 4.574-4.571 7.141-10.772 7.141-17.237v-134.071h134.072c6.465 0 12.663-2.567 17.237-7.141 4.57-4.57 7.137-10.772 7.137-17.237z" />
<glyph unicode="&#xe948;" horiz-adv-x="1331" d="M1073.548 153.866c-12.739 0-25.192-3.833-35.785-11.015s-18.848-17.391-23.724-29.334c-4.874-11.943-6.151-25.085-3.666-37.765 2.487-12.679 8.62-24.325 17.63-33.466 9.008-9.141 20.485-15.365 32.98-17.888s25.446-1.229 37.216 3.719c11.771 4.948 21.83 13.326 28.908 24.074 7.079 10.749 10.856 23.385 10.856 36.313-0.019 17.329-6.811 33.944-18.888 46.196-12.075 12.254-28.447 19.147-45.525 19.166zM1073.548 66.717c-4.246 0-8.397 1.278-11.928 3.671s-6.284 5.798-7.909 9.779c-1.625 3.98-2.050 8.361-1.222 12.588s2.874 8.108 5.876 11.155c3.004 3.046 6.828 5.122 10.994 5.963 4.164 0.84 8.482 0.41 12.406-1.241 3.922-1.649 7.276-4.441 9.636-8.025 2.359-3.582 3.618-7.794 3.618-12.104-0.007-5.777-2.272-11.313-6.296-15.399-4.026-4.084-9.482-6.381-15.176-6.388z" />
<glyph unicode="&#xe949;" horiz-adv-x="1331" d="M1327.792 448.894l-193.239 305.024c-1.946 3.067-4.618 5.589-7.774 7.335-3.157 1.748-6.694 2.661-10.288 2.659h-257.652v119.832c-0.022 20.218-7.946 39.6-22.035 53.896s-33.19 22.337-53.113 22.36h-708.543c-19.924-0.022-39.025-8.064-53.114-22.36s-22.013-33.679-22.035-53.896v-795.24c0-5.779 2.262-11.32 6.289-15.406s9.488-6.381 15.182-6.381h87.441c5.161-36.296 23.039-69.489 50.356-93.495 27.317-24.008 62.246-37.222 98.384-37.222s71.066 13.215 98.384 37.222c27.317 24.006 45.194 57.199 50.355 93.495h518.417c5.161-36.296 23.038-69.489 50.355-93.495 27.319-24.008 62.246-37.222 98.384-37.222s71.067 13.215 98.384 37.222c27.317 24.006 45.196 57.199 50.357 93.495h87.439c5.695 0 11.156 2.295 15.183 6.381s6.289 9.627 6.289 15.406v348.599c0 4.18-1.183 8.274-3.408 11.791zM257.652-20.434c-21.233 0-41.989 6.39-59.643 18.36-17.655 11.969-31.415 28.983-39.541 48.889-8.125 19.905-10.251 41.808-6.109 62.94s14.367 40.544 29.38 55.777c15.015 15.235 34.144 25.612 54.968 29.814 20.825 4.204 42.411 2.046 62.027-6.199s36.383-22.207 48.179-40.122c11.796-17.915 18.092-38.977 18.092-60.522-0.029-28.884-11.348-56.576-31.474-77-20.127-20.422-47.416-31.91-75.88-31.939zM815.896 110.292h-409.504c-5.161 36.294-23.038 69.487-50.355 93.495-27.319 24.008-62.246 37.221-98.384 37.221s-71.067-13.213-98.384-37.221c-27.318-24.008-45.195-57.201-50.356-93.495h-65.969v217.873h772.954v-217.873zM815.896 371.739h-772.954v512.005c0.007 8.665 3.403 16.974 9.441 23.101s14.226 9.573 22.766 9.58h708.543c8.538-0.007 16.727-3.453 22.765-9.58s9.433-14.436 9.44-23.101v-512.005zM1146.173 654.976l124.237-196.086h-304.217v196.086h179.98zM1073.548-20.434c-21.233 0-41.989 6.39-59.643 18.36s-31.415 28.983-39.54 48.889c-8.125 19.905-10.25 41.808-6.108 62.94s14.367 40.544 29.38 55.777c15.014 15.235 34.142 25.612 54.967 29.814 20.825 4.204 42.411 2.046 62.027-6.199s36.383-22.207 48.179-40.122c11.796-17.915 18.094-38.977 18.094-60.522-0.029-28.884-11.349-56.576-31.476-77-20.127-20.422-47.416-31.91-75.88-31.939zM1288.259 284.59h-42.943c-5.693 0-11.155 2.295-15.181 6.381-4.028 4.086-6.289 9.627-6.289 15.406s2.261 11.32 6.289 15.406c4.026 4.086 9.487 6.381 15.181 6.381h42.943v-43.575zM1288.259 371.739h-42.943c-17.082 0-33.466-6.886-45.546-19.144s-18.865-28.882-18.865-46.218c0-17.335 6.786-33.959 18.865-46.218 12.080-12.257 28.464-19.144 45.546-19.144h42.943v-130.724h-65.969c-5.161 36.294-23.040 69.487-50.357 93.495s-62.246 37.221-98.384 37.221c-36.139 0-71.066-13.213-98.384-37.221s-45.194-57.201-50.355-93.495h-65.969v610.046h245.922l13.822-21.787h-173.862c-5.693 0-11.155-2.295-15.181-6.381-4.028-4.086-6.289-9.627-6.289-15.406v-239.66c0-5.779 2.261-11.32 6.289-15.406 4.026-4.086 9.487-6.381 15.181-6.381h343.537v-43.576z" />
<glyph unicode="&#xe94a;" horiz-adv-x="1331" d="M1009.135 371.732h-64.413c-5.693 0-11.155-2.294-15.183-6.381-4.026-4.086-6.287-9.627-6.287-15.406 0-5.777 2.261-11.319 6.287-15.406 4.028-4.086 9.489-6.381 15.183-6.381h64.413c5.695 0 11.156 2.295 15.183 6.381s6.289 9.629 6.289 15.406c0 5.779-2.263 11.32-6.289 15.406-4.026 4.087-9.487 6.381-15.183 6.381z" />
<glyph unicode="&#xe94b;" horiz-adv-x="1331" d="M558.246 241.009h171.767c5.693 0 11.155 2.295 15.183 6.381 4.026 4.086 6.287 9.627 6.287 15.406s-2.261 11.32-6.287 15.406c-4.028 4.086-9.489 6.381-15.183 6.381h-171.767c-5.695 0-11.156-2.295-15.183-6.381s-6.289-9.627-6.289-15.406 2.261-11.32 6.289-15.406c4.026-4.086 9.487-6.381 15.183-6.381z" />
<glyph unicode="&#xe94c;" horiz-adv-x="1331" d="M730.013 219.233h-64.413c-5.695 0-11.155-2.295-15.183-6.381-4.026-4.086-6.289-9.627-6.289-15.406s2.263-11.32 6.289-15.406c4.028-4.086 9.487-6.381 15.183-6.381h64.413c5.695 0 11.156 2.295 15.183 6.381s6.289 9.627 6.289 15.406c0 5.779-2.263 11.32-6.289 15.406s-9.487 6.381-15.183 6.381z" />
<glyph unicode="&#xe94d;" horiz-adv-x="1331" d="M307.2 772.267h136.533l-170.667-238.933h-136.533l170.667 238.933z" />
<glyph unicode="&#xe94e;" glyph-name="route" d="M669.878 660.727c77.172 0 149.727-30.053 204.297-84.622s84.62-127.123 84.624-204.295c0-156.113-147.61-285.961-226.914-355.724l-0.005-0.005-0.070-0.061c-10.989-9.667-20.48-18.018-28.048-25.088-9.5-8.872-21.69-13.307-33.885-13.307-12.19 0-24.385 4.436-33.88 13.307-7.582 7.084-17.101 15.458-28.123 25.149-79.299 69.762-226.914 199.61-226.914 355.728 0 77.172 30.053 149.724 84.625 204.295 54.565 54.57 127.12 84.622 204.293 84.622zM676.445 20.173c8.020 7.489 17.743 16.049 29.007 25.954 74.552 65.583 213.327 187.662 213.327 325.683 0 137.244-111.658 248.901-248.902 248.901-137.249 0-248.905-111.657-248.905-248.901 0-138.021 138.774-260.101 213.33-325.683l0.061-0.051c11.236-9.886 20.941-18.423 28.947-25.903 3.682-3.435 9.453-3.435 13.135 0zM542.562 382.72c0 70.209 57.116 127.324 127.32 127.324 70.209 0 127.325-57.115 127.325-127.324 0-70.205-57.116-127.32-127.325-127.32-70.205 0-127.32 57.116-127.32 127.32zM582.577 382.725c0-48.142 39.168-87.31 87.305-87.31 48.142 0 87.31 39.168 87.31 87.31 0 48.137-39.168 87.305-87.31 87.305-48.137 0-87.305-39.168-87.305-87.305zM874.175 576.105v0zM958.799 371.81v0zM731.885 16.086l6.083-7.047 0.065 0.056-6.149 6.991zM731.881 16.081l-6.083 7.047-0.061-0.051 6.144-6.996zM731.811 16.021v0zM703.763-9.067v0zM635.997-9.067v0zM607.874 16.081v0zM465.585 576.105v0zM705.452 46.127v0zM676.445 20.173v0zM918.779 371.81v0zM634.303 46.127l6.153 6.986-0.005 0.005-6.149-6.991zM634.363 46.075l-6.153-6.986 0.005-0.005 6.149 6.991zM663.31 20.173l-6.358-6.8 0.005-0.005 6.353 6.805zM880.756 582.687c-56.315 56.316-131.235 87.349-210.879 87.349v-18.618c74.705 0 144.891-29.072 197.716-81.896l13.163 13.165zM968.108 371.81c-0.005 79.639-31.037 154.561-87.352 210.877l-13.163-13.165c52.824-52.825 81.892-123.012 81.897-197.713h18.618zM738.034 9.095c39.596 34.835 96.982 85.281 144.417 146.786 47.397 61.449 85.658 134.931 85.658 215.929h-18.618c0-75.115-35.547-144.617-81.78-204.558-46.192-59.89-102.27-109.247-141.973-144.175l12.297-13.982zM737.969 9.039v0 0zM737.96 9.030l0.070 0.061-12.293 13.987-0.070-0.065 12.293-13.982zM710.116-15.867c7.443 6.954 16.817 15.197 27.843 24.897l-12.297 13.982c-10.952-9.635-20.564-18.092-28.253-25.274l12.707-13.605zM669.878-31.683c14.448 0 28.937 5.26 40.239 15.816l-12.707 13.605c-7.699-7.191-17.59-10.803-27.532-10.803v-18.618zM629.639-15.867c11.301-10.557 25.795-15.816 40.239-15.816v18.618c-9.937 0-19.828 3.612-27.527 10.803l-12.712-13.605zM601.726 9.095c11.059-9.728 20.457-17.999 27.913-24.962l12.712 13.605c-7.708 7.196-17.343 15.672-28.328 25.335l-12.297-13.978zM371.651 371.81c0-80.998 38.261-154.484 85.657-215.934 47.44-61.505 104.821-111.951 144.418-146.781l12.297 13.978c-39.703 34.928-95.777 84.285-141.973 144.175-46.235 59.946-81.781 129.448-81.781 204.563h-18.618zM459 582.687c-56.315-56.317-87.349-131.238-87.349-210.877h18.618c0 74.701 29.072 144.887 81.897 197.713l-13.166 13.165zM669.878 670.036c-79.639 0-154.563-31.033-210.877-87.349l13.166-13.165c52.82 52.824 123.010 81.896 197.711 81.896v18.618zM699.304 53.118c-11.231-9.877-21.071-18.534-29.212-26.14l12.707-13.605c7.899 7.373 17.506 15.83 28.802 25.763l-12.297 13.982zM909.47 371.81c0-65.946-33.215-128.936-76.712-184.25-43.413-55.208-96.121-101.604-133.455-134.442l12.297-13.982c37.218 32.745 91.178 80.179 135.792 136.913 44.525 56.623 80.696 123.681 80.696 195.761h-18.618zM669.878 611.402c132.105 0 239.593-107.489 239.593-239.592h18.618c0 142.385-115.824 258.21-258.211 258.21v-18.618zM430.282 371.81c0 132.103 107.491 239.592 239.596 239.592v18.618c-142.387 0-258.214-115.825-258.214-258.21h18.618zM640.451 53.118c-37.334 32.842-90.042 79.234-133.455 134.442-43.498 55.315-76.715 118.305-76.715 184.25h-18.618c0-72.080 36.172-139.138 80.699-195.761 44.614-56.734 98.569-104.169 135.792-136.909l12.297 13.978zM640.512 53.062l-0.056 0.051-12.302-13.973 0.056-0.051 12.302 13.973zM669.663 26.978c-8.127 7.592-17.948 16.235-29.151 26.089l-12.297-13.982c11.269-9.914 20.857-18.348 28.737-25.712l12.712 13.605zM670.096 26.982c-0.042-0.042-0.107-0.079-0.219-0.079s-0.177 0.037-0.219 0.079l-12.702-13.615c7.261-6.777 18.581-6.772 25.842 0l-12.702 13.615zM669.882 519.353c-75.348 0-136.63-61.285-136.63-136.633h18.618c0 65.066 52.95 118.015 118.011 118.015v18.618zM806.516 382.72c0 75.348-61.286 136.633-136.634 136.633v-18.618c65.066 0 118.016-52.949 118.016-118.015h18.618zM669.882 246.090c75.348 0 136.634 61.282 136.634 136.63h-18.618c0-65.066-52.95-118.011-118.016-118.011v-18.618zM533.253 382.72c0-75.348 61.282-136.63 136.63-136.63v18.618c-65.061 0-118.011 52.95-118.011 118.011h-18.618zM669.882 304.724c-42.999 0-77.996 35.002-77.996 78.001h-18.618c0-53.285 43.334-96.619 96.614-96.619v18.618zM747.883 382.725c0-42.999-34.998-78.001-78.001-78.001v-18.618c53.285 0 96.619 43.334 96.619 96.619h-18.618zM669.882 460.721c43.003 0 78.001-34.998 78.001-77.996h18.618c0 53.281-43.334 96.614-96.619 96.614v-18.618zM591.886 382.725c0 42.999 34.998 77.996 77.996 77.996v18.618c-53.281 0-96.614-43.334-96.614-96.614h18.618zM269.839 927.409c53.427 0 103.657-20.806 141.435-58.585s58.583-88.010 58.583-141.435c0-108.079-102.189-197.974-157.092-246.272h-0.002l-0.048-0.042c-7.609-6.693-14.181-12.474-19.419-17.371-6.578-6.139-15.017-9.211-23.458-9.211-8.44 0-16.881 3.072-23.458 9.211-5.249 4.906-11.838 10.701-19.468 17.413-54.902 48.295-157.095 138.191-157.095 246.272 0 53.426 20.806 103.655 58.585 141.435s88.009 58.585 141.436 58.585zM274.385 483.952c5.551 5.181 12.284 11.106 20.081 17.965 51.615 45.404 147.69 129.919 147.689 225.472 0 95.016-77.301 172.317-172.317 172.317s-172.318-77.301-172.318-172.317c0-95.553 96.075-180.068 147.69-225.471l0.039-0.034c7.781-6.844 14.501-12.756 20.042-17.932 2.551-2.383 6.545-2.383 9.095 0zM181.695 734.945c0 48.604 39.542 88.146 88.147 88.146s88.146-39.542 88.146-88.146c0-48.605-39.541-88.146-88.146-88.146s-88.147 39.541-88.147 88.146zM209.398 734.946c0-33.328 27.115-60.443 60.444-60.443s60.443 27.116 60.443 60.443c0 33.328-27.115 60.443-60.443 60.443s-60.444-27.115-60.444-60.443zM411.275 868.824v0zM469.858 727.389v0zM312.766 481.117l9.146-10.552 0.077 0.070-9.223 10.482zM312.764 481.117l-9.145 10.552-0.074-0.065 9.219-10.487zM312.716 481.075v0zM293.297 463.704v0zM246.381 463.704v0zM226.913 481.117v0zM128.403 868.824v0zM294.466 501.916v0zM274.385 483.952v0zM442.155 727.388v0zM245.209 501.917v0zM245.248 501.883v0zM265.29 483.952l-9.533-10.203 0.006-0.009 9.528 10.212zM421.148 878.698c-40.397 40.398-94.179 62.675-151.309 62.675v-27.928c49.724 0 96.402-19.335 131.561-54.494l19.748 19.747zM483.821 727.389c0 57.129-22.275 110.91-62.673 151.309l-19.748-19.747c35.16-35.161 54.494-81.839 54.495-131.562h27.926zM321.989 470.635c27.371 24.077 67.625 59.441 100.969 102.672 33.281 43.149 60.863 95.629 60.863 154.082h-27.926c0-49.627-23.511-96.134-55.051-137.026-31.477-40.811-69.769-74.542-97.301-98.76l18.445-20.969zM321.909 470.565v0zM321.935 470.589l0.048 0.042-18.438 20.973-0.048-0.042 18.438-20.973zM302.829 453.502c5.052 4.72 11.446 10.347 19.11 17.087l-18.445 20.969c-7.555-6.642-14.305-12.581-19.729-17.645l19.065-20.41zM269.838 440.529c11.819 0 23.711 4.305 32.99 12.972l-19.063 20.41c-3.876-3.621-8.864-5.455-13.927-5.455v-27.927zM236.849 453.502c9.278-8.667 21.173-12.972 32.99-12.972v27.927c-5.062 0-10.051 1.834-13.926 5.455l-19.064-20.41zM217.691 470.63c7.684-6.758 14.095-12.4 19.159-17.129l19.063 20.41c-5.435 5.078-12.2 11.027-19.776 17.687l-18.445-20.969zM55.855 727.389c0-58.454 27.585-110.935 60.866-154.084 33.344-43.231 73.6-78.596 100.97-102.675l18.445 20.969c-27.532 24.22-65.824 57.951-97.302 98.762-31.541 40.893-55.053 87.4-55.053 137.027h-27.927zM118.529 878.698c-40.397-40.399-62.674-94.18-62.674-151.309h27.927c0 49.723 19.335 96.4 54.495 131.562l-19.748 19.747zM269.839 941.373c-57.13 0-110.913-22.277-151.31-62.675l19.748-19.747c35.16 35.16 81.839 54.494 131.563 54.494v27.928zM285.244 512.401c-7.747-6.815-14.653-12.889-20.389-18.246l19.062-20.41c5.367 5.013 11.926 10.785 19.772 17.687l-18.445 20.969zM428.191 727.388c0-43.175-21.802-85.142-51.501-122.91-29.569-37.603-65.555-69.301-91.447-92.077l18.446-20.969c25.722 22.628 63.582 55.889 94.954 95.783 31.241 39.729 57.476 87.796 57.476 140.173h-27.927zM269.837 885.742c87.304 0 158.354-71.049 158.354-158.354h27.927c0 102.728-83.553 186.281-186.281 186.281v-27.927zM111.483 727.388c0 87.304 71.049 158.354 158.355 158.354v27.927c-102.729 0-186.282-83.553-186.282-186.281h27.927zM254.432 512.402c-25.892 22.776-61.878 54.474-91.447 92.076-29.7 37.768-51.502 79.735-51.502 122.91h-27.927c0-52.378 26.235-100.445 57.477-140.173 31.372-39.894 69.232-73.155 94.955-95.783l18.445 20.97zM254.473 512.366l-0.039 0.034-18.45-20.964 0.039-0.037 18.45 20.967zM274.824 494.154c-5.728 5.35-12.624 11.414-20.353 18.213l-18.445-20.969c7.831-6.889 14.376-12.646 19.731-17.65l19.067 20.406zM264.858 494.159c2.814 2.625 7.145 2.626 9.96 0l-19.056-20.419c7.917-7.387 20.237-7.382 28.151 0l-19.056 20.419zM269.842 837.054c-56.316 0-102.11-45.793-102.11-102.11h27.927c0 40.893 33.291 74.182 74.183 74.182v27.927zM371.951 734.945c0 56.316-45.793 102.11-102.11 102.11v-27.927c40.893 0 74.182-33.29 74.182-74.182h27.927zM269.842 632.835c56.317 0 102.11 45.793 102.11 102.11h-27.927c0-40.893-33.29-74.182-74.182-74.182v-27.927zM167.731 734.945c0-56.317 45.794-102.11 102.11-102.11v27.927c-40.893 0-74.183 33.29-74.183 74.182h-27.927zM269.842 688.466c-25.617 0-46.48 20.864-46.48 46.48h-27.927c0-41.040 33.367-74.407 74.408-74.407v27.927zM316.322 734.946c0-25.616-20.863-46.48-46.48-46.48v-27.927c41.041 0 74.407 33.368 74.407 74.407h-27.927zM269.842 781.425c25.617 0 46.48-20.864 46.48-46.479h27.927c0 41.040-33.366 74.407-74.407 74.407v-27.927zM223.361 734.946c0 25.616 20.864 46.479 46.48 46.479v27.927c-41.041 0-74.408-33.367-74.408-74.407h27.927zM268.397 199.514l88.732-71.352c11.478-9.23 13.301-26.018 4.071-37.496v0c-9.23-11.478-26.018-13.301-37.496-4.071l-88.732 71.352c-11.478 9.23-13.301 26.018-4.071 37.496v0c9.23 11.478 26.018 13.301 37.496 4.071zM434.132 67.001l91.528-67.728c11.84-8.761 14.336-25.462 5.575-37.302v0c-8.761-11.84-25.462-14.336-37.302-5.575l-91.528 67.728c-11.84 8.761-14.336 25.462-5.575 37.302v0c8.761 11.84 25.462 14.336 37.302 5.575zM226.726 434.921c0-14.729-11.94-26.669-26.669-26.669s-26.669 11.94-26.669 26.669c0 14.729 11.94 26.669 26.669 26.669s26.669-11.94 26.669-26.669zM212.055 234.92c0-14.729-11.94-26.669-26.669-26.669s-26.669 11.94-26.669 26.669c0 14.729 11.94 26.669 26.669 26.669s26.669-11.94 26.669-26.669z" />
<glyph unicode="&#xe94f;" glyph-name="history_list" d="M823.082 838.685h-762.503c-7.485 0-14.034 6.586-14.034 14.112 0 7.997 6.549 14.112 14.034 14.112h762.503c7.955 0 14.033-6.115 14.033-14.112 0-7.526-6.079-14.112-14.033-14.112zM369.323 573.846h-308.743c-7.485 0-14.034 6.116-14.034 14.113s6.549 14.112 14.034 14.112h308.743c7.953 0 14.034-6.116 14.034-14.112s-6.081-14.113-14.034-14.113zM289.798 308.536h-229.219c-7.485 0-14.034 6.586-14.034 14.113s6.549 14.113 14.034 14.113h229.219c7.952 0 14.034-6.586 14.034-14.113 0-7.997-6.082-14.113-14.034-14.113zM60.579 71.922h252.608c7.953 0 14.034-6.116 14.034-14.113 0-7.526-6.081-14.113-14.034-14.113h-252.608c-7.485 0-14.034 6.586-14.034 14.113 0 7.997 6.549 14.113 14.034 14.113zM355.289 295.363c0 172.642 139.4 312.822 311.083 312.822 171.678 0 311.082-140.18 311.082-312.822 0-172.637-139.404-312.818-311.082-312.818-171.683 0-311.083 140.181-311.083 312.818zM383.357 295.363c0-157.114 126.772-284.593 283.016-284.593s283.015 127.479 283.015 284.593c0 157.119-126.771 284.598-283.015 284.598s-283.016-127.479-283.016-284.598zM670.245 306.814h144.291c7.913 0 13.964-6.391 13.964-14.741 0-7.862-6.051-14.741-13.964-14.741h-158.255c-7.913 0-13.964 6.879-13.964 14.741v191.614c0 8.35 6.051 14.738 13.964 14.738s13.964-6.387 13.964-14.738v-176.873zM670.245 306.814h-23.273v-23.273h23.273v23.273zM60.579 815.412h762.503v46.545h-762.503v-46.545zM23.273 852.797c0-20.258 16.847-37.385 37.307-37.385v46.545c3.149 0 5.4-1.344 6.678-2.629 1.279-1.287 2.56-3.491 2.56-6.532h-46.545zM60.579 890.182c-19.954 0-37.307-16.155-37.307-37.385h46.545c0-5.237-4.254-9.161-9.239-9.161v46.545zM823.082 890.182h-762.503v-46.545h762.503v46.545zM860.388 852.797c0 20.728-16.379 37.385-37.306 37.385v-46.545c-2.15 0-4.603 0.895-6.502 2.805-1.894 1.906-2.737 4.308-2.737 6.356h46.545zM823.082 815.412c21.43 0 37.306 17.636 37.306 37.385h-46.545c0 4.696 3.719 9.161 9.239 9.161v-46.545zM60.579 550.573h308.743v46.545h-308.743v-46.545zM23.273 587.958c0-21.231 17.353-37.385 37.307-37.385v46.545c4.985 0 9.239-3.924 9.239-9.16h-46.545zM60.579 625.343c-19.954 0-37.307-16.155-37.307-37.385h46.545c0-5.237-4.254-9.161-9.239-9.161v46.545zM369.323 625.343h-308.743v-46.545h308.743v46.545zM406.629 587.958c0 20.728-16.379 37.385-37.307 37.385v-46.545c-2.152 0-4.603 0.894-6.503 2.805-1.895 1.906-2.736 4.308-2.736 6.356h46.545zM369.323 550.573c20.928 0 37.307 16.657 37.307 37.385h-46.545c0 2.047 0.841 4.45 2.736 6.355 1.9 1.911 4.351 2.805 6.503 2.805v-46.545zM60.579 285.263h229.219v46.545h-229.219v-46.545zM23.273 322.648c0-20.257 16.847-37.385 37.307-37.385v46.545c3.149 0 5.4-1.341 6.678-2.63 1.279-1.285 2.56-3.491 2.56-6.53h-46.545zM60.579 360.034c-20.46 0-37.307-17.129-37.307-37.385h46.545c0-3.039-1.281-5.246-2.56-6.53s-3.529-2.63-6.678-2.63v46.545zM289.798 360.034h-229.219v-46.545h229.219v46.545zM327.105 322.648c0 19.749-15.879 37.385-37.307 37.385v-46.545c-5.523 0-9.239 4.464-9.239 9.16h46.545zM289.798 285.263c20.928 0 37.307 16.659 37.307 37.385h-46.545c0 2.048 0.841 4.45 2.736 6.358 1.9 1.908 4.35 2.802 6.503 2.802v-46.545zM313.188 95.195h-252.608v-46.545h252.608v46.545zM350.494 57.809c0 20.727-16.379 37.385-37.307 37.385v-46.545c-2.153 0-4.603 0.894-6.503 2.807-1.895 1.904-2.736 4.305-2.736 6.353h46.545zM313.188 20.424c21.428 0 37.307 17.636 37.307 37.385h-46.545c0 4.696 3.716 9.16 9.239 9.16v-46.545zM60.579 20.424h252.608v46.545h-252.608v-46.545zM23.273 57.809c0-20.257 16.847-37.385 37.307-37.385v46.545c3.149 0 5.4-1.341 6.678-2.625 1.279-1.289 2.56-3.491 2.56-6.535h-46.545zM60.579 95.195c-19.954 0-37.307-16.156-37.307-37.385h46.545c0-5.236-4.254-9.16-9.239-9.16v46.545zM666.373 631.458c-184.655 0-334.356-150.723-334.356-336.095h46.545c0 159.912 129.105 289.549 287.811 289.549v46.545zM1000.727 295.363c0 185.372-149.699 336.095-334.355 336.095v-46.545c158.706 0 287.809-129.638 287.809-289.549h46.545zM666.373-40.727c184.655 0 334.355 150.723 334.355 336.091h-46.545c0-159.907-129.103-289.545-287.809-289.545v-46.545zM332.017 295.363c0-185.367 149.701-336.091 334.356-336.091v46.545c-158.706 0-287.811 129.638-287.811 289.545h-46.545zM666.373 34.043c-143.267 0-259.743 116.936-259.743 261.32h-46.545c0-169.844 137.068-307.866 306.289-307.866v46.545zM926.115 295.363c0-144.384-116.475-261.32-259.742-261.32v-46.545c169.216 0 306.288 138.021 306.288 307.866h-46.545zM666.373 556.689c143.267 0 259.742-116.937 259.742-261.325h46.545c0 169.849-137.072 307.871-306.288 307.871v-46.545zM406.629 295.363c0 144.389 116.476 261.325 259.743 261.325v46.545c-169.221 0-306.289-138.022-306.289-307.871h46.545zM814.536 330.086h-144.291v-46.545h144.291v46.545zM851.773 292.073c0 20.005-15.299 38.014-37.236 38.014v-46.545c-2.546 0-5.129 1.112-6.945 3.030-1.769 1.862-2.365 3.98-2.365 5.502h46.545zM814.536 254.059c22.421 0 37.236 19.018 37.236 38.014h-46.545c0 2.015 0.759 3.956 2.183 5.492 1.508 1.634 4.045 3.039 7.126 3.039v-46.545zM656.282 254.059h158.255v46.545h-158.255v-46.545zM619.045 292.073c0-18.995 14.815-38.014 37.236-38.014v46.545c3.081 0 5.618-1.406 7.131-3.039 1.42-1.536 2.178-3.477 2.178-5.492h-46.545zM619.045 483.686v-191.614h46.545v191.614h-46.545zM656.282 521.697c-21.937 0-37.236-18.008-37.236-38.010h46.545c0-1.522-0.596-3.64-2.365-5.506-1.815-1.913-4.399-3.030-6.945-3.030v46.547zM693.518 483.686c0 20.002-15.299 38.010-37.236 38.010v-46.547c-2.546 0-5.129 1.117-6.945 3.030-1.769 1.866-2.365 3.984-2.365 5.506h46.545zM693.518 306.814v176.873h-46.545v-176.873h46.545z" />
<glyph unicode="&#xe950;" glyph-name="keyboard" d="M791.273 168.727h-496.485c-18.618 0-31.030 12.414-31.030 31.032s12.412 31.027 31.030 31.027h496.485c18.618 0 31.032 12.414 31.032 31.032v372.364c0 18.618-12.414 31.030-31.032 31.030h-558.545c-18.618 0-31.030-12.412-31.030-31.030v-434.423c0-18.618-12.412-31.032-31.030-31.032s-31.030 12.414-31.030 31.032v434.423c0 52.751 40.34 93.091 93.091 93.091h558.545c52.75 0 93.091-40.34 93.091-93.091v-372.364c0-49.65-40.341-93.091-93.091-93.091zM698.182 323.877c0 18.618-12.414 31.032-31.032 31.032h-310.301c-18.618 0-31.030-12.414-31.030-31.032s12.412-31.027 31.030-31.027h310.301c18.618 0 31.032 15.514 31.032 31.027zM325.818 603.151c-18.618 0-31.030-12.412-31.030-31.030s12.412-31.030 31.030-31.030c18.618 0 31.030 12.412 31.030 31.030s-12.412 31.030-31.030 31.030zM449.94 603.151c-18.618 0-31.030-12.412-31.030-31.030s12.412-31.030 31.030-31.030c18.62 0 31.029 12.412 31.029 31.030s-12.409 31.030-31.029 31.030zM574.059 603.151c-18.618 0-31.027-12.412-31.027-31.030s12.409-31.030 31.027-31.030c18.618 0 31.032 12.412 31.032 31.030s-12.414 31.030-31.032 31.030zM698.182 603.151c-18.618 0-31.032-12.412-31.032-31.030s12.414-31.030 31.032-31.030c18.618 0 31.032 12.412 31.032 31.030s-12.414 31.030-31.032 31.030zM325.818 479.032c-18.618 0-31.030-12.414-31.030-31.032s12.412-31.032 31.030-31.032c18.618 0 31.030 12.414 31.030 31.032s-12.412 31.032-31.030 31.032zM449.94 479.032c-18.618 0-31.030-12.414-31.030-31.032s12.412-31.032 31.030-31.032c18.62 0 31.029 12.414 31.029 31.032s-12.409 31.032-31.029 31.032zM574.059 479.032c-18.618 0-31.027-12.414-31.027-31.032s12.409-31.032 31.027-31.032c18.618 0 31.032 12.414 31.032 31.032s-12.414 31.032-31.032 31.032zM698.182 479.032c-18.618 0-31.032-12.414-31.032-31.032s12.414-31.032 31.032-31.032c18.618 0 31.032 12.414 31.032 31.032s-12.414 31.032-31.032 31.032z" />
<glyph unicode="&#xe951;" glyph-name="time" d="M232.727 448c0-153.996 125.276-279.273 279.273-279.273 153.996 0 279.273 125.277 279.273 279.273 0 153.997-125.277 279.273-279.273 279.273-153.997 0-279.273-125.276-279.273-279.273zM267.636 448c0 134.749 109.615 244.364 244.364 244.364s244.364-109.615 244.364-244.364c0-134.749-109.615-244.364-244.364-244.364s-244.364 109.615-244.364 244.364zM630.63 300.898c3.849-3.533 8.899-5.283 13.959-5.283 5.055 0 10.11 1.75 13.954 5.283 7.717 7.028 7.717 18.432 0 25.465l-132.436 120.739v160.558c0 9.937-8.848 18.002-19.749 18.002s-19.745-8.065-19.745-18.002v-168.029c0-4.748 2.076-9.332 5.79-12.716l138.226-126.017z" />
<glyph unicode="&#xe952;" glyph-name="wallet" d="M929.233 620.034v-149.068c32.232-11.897 55.383-43.934 55.383-81.509v-115.288c0-37.574-23.15-69.612-55.383-81.509v-149.068c0-15.919-12.398-28.822-27.695-28.822h-779.076c-45.809 0-83.077 38.786-83.077 86.465v576.443c0 47.677 37.268 86.467 83.077 86.467h340.401l306.317 115.359c14.361 5.409 30.225-2.308 35.448-17.245l74.626-213.403h22.284c15.297 0 27.695-12.904 27.695-28.822zM720.085 721.792c-25.072 12.169-45.611 31.395-59.668 55.45l-340.911-128.385h500.804l-21.323 60.991c-27.821-4.369-54.842 0.267-78.902 11.944zM743.493 774.035c11.425-5.547 23.643-8.264 35.889-8.135l-17.348 49.61-47.694-17.962c7.791-9.903 17.677-17.944 29.153-23.513zM309.796 706.499h-187.334c-15.269 0-27.693-12.929-27.693-28.822s12.423-28.822 27.693-28.822h34.268l153.067 57.644zM94.769 101.234c0-15.888 12.423-28.822 27.693-28.822h751.388v115.289h-138.465c-76.348 0-138.462 64.648-138.462 144.111s62.114 144.111 138.462 144.111h138.465v115.288h-751.388c-9.708 0-19.025 1.758-27.693 4.958v-494.935zM901.537 245.346c15.273 0 27.695 12.929 27.695 28.822v115.288c0 15.892-12.422 28.822-27.695 28.822h-166.153c-45.809 0-83.077-38.789-83.077-86.467s37.268-86.466 83.077-86.466h166.153zM786.462 331.385c0-21.751-17.633-39.385-39.385-39.385s-39.385 17.633-39.385 39.385c0 21.751 17.632 39.385 39.385 39.385s39.385-17.633 39.385-39.385zM929.233 470.965h-7.877v-5.489l5.144-1.901 2.733 7.389zM929.233 192.659l-2.733 7.389-5.144-1.901v-5.489h7.877zM462.863 764.144v-7.877h1.434l1.342 0.505-2.776 7.372zM769.18 879.503v0zM804.628 862.258v0zM879.254 648.855l-7.436-2.6 1.843-5.277h5.593v7.877zM660.418 777.243l6.801 3.974-3.355 5.741-6.222-2.343 2.776-7.371zM720.085 721.792v0zM319.507 648.858l-2.776 7.371 2.776-15.248v7.877zM820.311 648.858v-7.877h11.099l-3.663 10.477-7.436-2.6zM798.988 709.849l7.436 2.6-2.174 6.201-6.491-1.019 1.229-7.782zM779.382 765.9l0.083-7.876 10.976 0.115-3.624 10.361-7.435-2.6zM743.493 774.035l3.44 7.086-0.002 0.001-3.438-7.087zM762.034 815.51l7.435 2.6-2.662 7.615-7.549-2.843 2.777-7.372zM714.34 797.549l-2.776 7.371-10.064-3.79 6.649-8.452 6.19 4.87zM309.796 706.499l2.776-7.371-2.776 15.248v-7.877zM156.73 648.855v-7.877h1.434l1.342 0.506-2.777 7.371zM873.85 72.413v-7.877h7.877v7.877h-7.877zM873.85 187.702h7.877v7.877h-7.877v-7.877zM873.85 475.923v-7.877h7.877v7.877h-7.877zM873.85 591.211h7.877v7.877h-7.877v-7.877zM94.769 596.169l2.728 7.389-10.605 3.914v-11.303h7.877zM937.11 470.965v149.068h-15.754v-149.068h15.754zM992.492 389.456c0 40.828-25.167 75.844-60.534 88.899l-5.459-14.779c29.097-10.74 50.239-39.799 50.239-74.119h15.754zM992.492 274.168v115.288h-15.754v-115.288h15.754zM931.958 185.27c35.367 13.055 60.534 48.070 60.534 88.898h-15.754c0-34.321-21.142-63.379-50.239-74.119l5.459-14.779zM937.11 43.591v149.068h-15.754v-149.068h15.754zM901.537 6.892c19.936 0 35.572 16.731 35.572 36.699h-15.754c0-11.863-9.169-20.945-19.818-20.945v-15.754zM122.462 6.892h779.076v15.754h-779.076v-15.754zM31.508 101.234c0-51.728 40.501-94.342 90.954-94.342v15.754c-41.165 0-75.2 34.966-75.2 78.588h-15.754zM31.508 677.678v-576.443h15.754v576.443h-15.754zM122.462 772.021c-50.453 0-90.954-42.616-90.954-94.343h15.754c0 43.627 34.035 78.59 75.2 78.59v15.754zM462.863 772.021h-340.401v-15.754h340.401v15.754zM766.404 886.875l-306.318-115.359 5.552-14.743 306.318 115.36-5.552 14.743zM812.064 864.858c-6.609 18.889-26.939 29.068-45.659 22.017l5.552-14.743c10.002 3.767 21.391-1.488 25.235-12.474l14.872 5.2zM886.689 651.455l-74.626 213.403-14.872-5.2 74.626-213.403 14.872 5.2zM901.537 656.732h-22.284v-15.754h22.284v15.754zM937.11 620.034c0 19.968-15.636 36.699-35.572 36.699v-15.754c10.65 0 19.818-9.078 19.818-20.945h15.754zM653.617 773.268c14.828-25.376 36.525-45.698 63.030-58.562l6.878 14.173c-23.64 11.474-43.021 29.603-56.306 52.337l-13.602-7.949zM322.284 641.486l340.91 128.385-5.552 14.743-340.911-128.385 5.552-14.743zM820.311 656.735h-500.804v-15.754h500.804v15.754zM791.552 707.248l21.323-60.991 14.872 5.2-21.323 60.991-14.872-5.2zM716.646 714.706c25.435-12.344 54.076-17.27 83.562-12.639l-2.45 15.563c-26.148-4.108-51.547 0.239-74.234 11.249l-6.878-14.173zM779.299 773.777c-11.014-0.116-22.026 2.324-32.366 7.344l-6.88-14.171c12.512-6.075 25.935-9.068 39.412-8.926l-0.165 15.753zM754.598 812.91l17.349-49.61 14.87 5.2-17.348 49.61-14.871-5.2zM717.117 790.177l47.693 17.962-5.552 14.743-47.693-17.963 5.552-14.742zM746.932 781.122c-10.385 5.040-19.335 12.316-26.4 21.297l-12.382-9.741c8.517-10.826 19.339-19.632 31.905-25.729l6.877 14.173zM122.462 698.622h187.334v15.754h-187.334v-15.754zM102.647 677.678c0 11.842 9.19 20.945 19.815 20.945v15.754c-19.914 0-35.57-16.756-35.57-36.699h15.755zM122.462 656.732c-10.625 0-19.815 9.103-19.815 20.946h-15.755c0-19.943 15.656-36.699 35.57-36.699v15.754zM156.73 656.732h-34.268v-15.754h34.268v15.754zM307.020 713.871l-153.067-57.644 5.552-14.743 153.066 57.644-5.552 14.743zM122.462 80.289c-10.625 0-19.815 9.106-19.815 20.945h-15.755c0-19.944 15.656-36.699 35.57-36.699v15.754zM873.85 80.289h-751.388v-15.754h751.388v15.754zM865.965 187.702v-115.289h15.762v115.289h-15.762zM735.385 179.825h138.465v15.754h-138.465v-15.754zM589.047 331.812c0-83.513 65.346-151.988 146.338-151.988v15.754c-71.704 0-130.585 60.822-130.585 136.234h-15.753zM735.385 483.8c-80.992 0-146.338-68.474-146.338-151.988h15.753c0 75.412 58.882 136.234 130.585 136.234v15.754zM873.85 483.8h-138.465v-15.754h138.465v15.754zM865.965 591.211v-115.288h15.762v115.288h-15.762zM122.462 583.334h751.388v15.754h-751.388v-15.754zM92.042 588.779c9.514-3.512 19.753-5.445 30.42-5.445v15.754c-8.748 0-17.143 1.583-24.965 4.47l-5.455-14.779zM102.647 101.234v494.935h-15.755v-494.935h15.755zM921.356 274.168c0-11.842-9.192-20.945-19.818-20.945v-15.755c19.913 0 35.572 16.757 35.572 36.699h-15.754zM921.356 389.456v-115.288h15.754v115.288h-15.754zM901.537 410.402c10.626 0 19.818-9.103 19.818-20.946h15.754c0 19.944-15.659 36.699-35.572 36.699v-15.754zM735.385 410.402h166.153v15.754h-166.153v-15.754zM660.185 331.812c0 43.627 34.035 78.59 75.2 78.59v15.754c-50.453 0-90.954-42.616-90.954-94.343h15.754zM735.385 253.223c-41.165 0-75.2 34.962-75.2 78.589h-15.754c0-51.728 40.501-94.343 90.954-94.343v15.755zM901.537 253.223h-166.153v-15.755h166.153v15.755zM747.077 284.123c26.102 0 47.263 21.16 47.263 47.262h-15.756c0-17.401-14.106-31.508-31.507-31.508v-15.754zM699.815 331.385c0-26.102 21.16-47.262 47.262-47.262v15.754c-17.402 0-31.508 14.107-31.508 31.508h-15.755zM747.077 378.646c-26.103 0-47.262-21.16-47.262-47.262h15.755c0 17.401 14.106 31.508 31.508 31.508v15.754zM794.34 331.385c0 26.102-21.161 47.262-47.263 47.262v-15.754c17.401 0 31.507-14.107 31.507-31.508h15.756z" />
<glyph unicode="&#xe953;" glyph-name="yen" d="M523.916 173.196c-4.468 26.81-5.958 46.173-5.958 83.409v72.983h109.475c32.023 0 52.131-1.489 77.452-5.958v55.855c-25.321-4.468-44.684-5.958-77.452-5.958h-109.475v35.002l29.789 44.684h79.686c32.768 0 52.876-1.489 78.196-5.958v55.855c-25.321-4.468-44.684-5.958-78.196-5.958h-52.131l114.688 177.245c20.108 30.534 35.747 52.131 46.173 64.791h-80.431c-5.213-17.129-14.15-33.513-35.747-68.515l-129.583-210.013-130.327 210.013c-23.831 37.236-30.534 51.386-36.492 68.515h-79.686c11.171-14.15 23.087-31.279 44.684-64.791l115.433-177.245h-52.131c-33.513 0-52.131 1.489-77.452 5.958v-55.855c25.321 4.468 43.939 5.958 77.452 5.958h80.431l29.044-43.939v-35.747h-109.475c-33.513 0-52.131 1.489-77.452 5.958v-55.855c25.321 4.468 43.939 5.958 77.452 5.958h109.475v-72.983c0-33.513-1.489-57.344-5.958-83.409h68.515z" />
<glyph unicode="&#xe954;" glyph-name="flyer_off" d="M302.545 820.364h418.909c51.414 0 93.091-41.678 93.091-93.091v-558.545c0-51.414-41.677-93.091-93.091-93.091h-418.909c-51.413 0-93.091 41.677-93.091 93.091v558.545c0 51.413 41.678 93.091 93.091 93.091zM306.424 773.818c-25.706 0-46.545-20.839-46.545-46.545v-558.545c0-25.707 20.839-46.545 46.545-46.545h411.153c25.707 0 46.545 20.838 46.545 46.545v558.545c0 25.706-20.838 46.545-46.545 46.545h-411.153zM349.091 517.818c0-12.853 10.42-23.273 23.273-23.273h279.273c12.851 0 23.273 10.42 23.273 23.273s-10.422 23.273-23.273 23.273h-279.273c-12.853 0-23.273-10.42-23.273-23.273zM372.364 634.182h279.273c12.851 0 23.273-10.42 23.273-23.273s-10.422-23.273-23.273-23.273h-279.273c-12.853 0-23.273 10.42-23.273 23.273s10.42 23.273 23.273 23.273zM349.091 424.727c0-12.851 10.42-23.273 23.273-23.273h279.273c12.851 0 23.273 10.422 23.273 23.273s-10.422 23.273-23.273 23.273h-279.273c-12.853 0-23.273-10.422-23.273-23.273zM372.364 354.909h232.727c12.851 0 23.273-10.422 23.273-23.273s-10.422-23.273-23.273-23.273h-232.727c-12.853 0-23.273 10.422-23.273 23.273s10.42 23.273 23.273 23.273z" />
<glyph unicode="&#xe955;" glyph-name="flyer_on" d="M209.455 727.273c0 51.413 41.678 93.091 93.091 93.091h418.909c51.414 0 93.091-41.678 93.091-93.091v-558.545c0-51.414-41.677-93.091-93.091-93.091h-418.909c-51.413 0-93.091 41.677-93.091 93.091v558.545zM349.091 517.818c0 12.853 10.42 23.273 23.273 23.273h279.273c12.851 0 23.273-10.42 23.273-23.273s-10.422-23.273-23.273-23.273h-279.273c-12.853 0-23.273 10.42-23.273 23.273zM372.364 634.182c-12.853 0-23.273-10.42-23.273-23.273s10.42-23.273 23.273-23.273h279.273c12.851 0 23.273 10.42 23.273 23.273s-10.422 23.273-23.273 23.273h-279.273zM349.091 424.727c0 12.851 10.42 23.273 23.273 23.273h279.273c12.851 0 23.273-10.422 23.273-23.273s-10.422-23.273-23.273-23.273h-279.273c-12.853 0-23.273 10.422-23.273 23.273zM372.364 354.909c-12.853 0-23.273-10.422-23.273-23.273s10.42-23.273 23.273-23.273h232.727c12.851 0 23.273 10.422 23.273 23.273s-10.422 23.273-23.273 23.273h-232.727z" />
<glyph unicode="&#xe956;" glyph-name="shop_off" d="M139.636 556.914c0 9.319 0 18.443 0 27.568 0.776 3.689 1.551 7.572 2.521 11.26 14.546 58.242 29.092 116.679 43.638 174.922 8.34 33.393 29.286 49.7 63.808 49.7 174.939 0 350.074 0 525.010 0 33.75 0 55.082-16.696 63.227-49.506 12.414-49.312 24.827-98.624 37.236-147.936 6.014-23.297 12.027-46.594 7.955-71.056-9.891-60.574-43.446-102.702-102.209-119.98-57.991-17.082-107.837 0.386-147.982 45.428-2.132 2.332-4.073 4.659-6.205 7.573-28.9-38.051-66.332-58.824-114.041-58.824-47.518 0-84.756 21.551-113.266 58.629-45.965-55.329-102.597-71.247-170.091-49.115-0.194-0.973-0.388-1.75-0.388-2.332 0-98.816 0-197.441 0-296.262 0-8.737 2.134-10.678 10.861-10.678 50.426 0 100.852 0 151.278 0 2.134 0 4.073 0.195 6.594 0.391 0 3.686 0 6.6 0 9.514 0 62.32 0 124.635 0 187.15 0 20.969 9.891 30.869 30.644 30.869 55.663 0 111.518 0 167.181 0 21.914 0 31.418-9.514 31.418-31.451 0-62.32 0-124.639 0-187.155 0-2.909 0-5.627 0-8.346 1.555-0.391 2.136-0.582 2.909-0.582 52.368 0 104.732 0 157.096 0 5.627 0 7.955 2.909 8.341 7.959 0.195 2.718 0.195 5.241 0.195 7.959 0 70.279 0 140.753 0 211.032 0 15.723 10.859 26.596 25.6 26.792 15.127 0.195 26.568-10.873 26.764-26.596 0.195-72.997 0.386-145.994 0-219.187-0.195-25.628-15.905-46.983-38.982-55.333-3.882-1.354-7.759-2.523-11.636-3.686-190.068 0-380.135 0-570.202 0-0.388 0.386-0.582 0.777-1.164 0.973-33.94 8.927-49.65 29.314-49.65 64.451 0 108.335 0 216.664-0.194 324.994 0 4.659-1.745 9.9-4.267 13.978-11.443 17.28-21.334 35.14-26.958 55.331-1.94 6.601-3.297 14.172-5.043 21.55zM426.483 769.11c-0.194-2.136-0.194-4.077-0.194-6.018 0-64.455-0.194-129.104 0-193.559 0-8.348 1.164-16.89 3.103-25.238 11.637-47.565 58.768-76.298 105.313-64.457 38.014 9.709 65.941 45.82 66.136 86.589 0.386 65.814 0.191 131.434 0 197.248 0 1.747-0.391 3.689-0.582 5.436-58.186 0-115.786 0-173.777 0zM373.341 769.498c-2.715 0-4.655 0-6.594 0-39.177 0-78.548-0.194-117.725 0.195-7.758 0-11.249-2.912-13.188-10.29-13.77-55.913-28.122-111.825-41.892-167.738-15.71-64.261 38.789-123.473 103.761-113.187 43.056 6.796 75.639 45.432 75.833 90.86 0.194 64.455 0 128.91 0 193.559 0.194 1.941 0 3.689-0.194 6.601zM652.237 769.498c-0.195-2.718-0.391-4.659-0.391-6.601 0-65.037 0-129.881 0-194.918 0-6.213 0.777-12.619 2.136-18.638 11.055-50.088 59.345-80.955 108.805-69.505 48.291 11.264 79.127 61.739 67.295 110.857-4.845 20.385-10.277 40.77-15.514 61.349-9.118 36.11-18.232 72.221-27.345 108.525-1.359 5.242-3.3 9.125-9.309 9.125-41.505-0.194-83.205-0.195-125.677-0.195zM450.144 126.501c41.697 0 82.429 0 123.347 0 0 58.438 0 116.098 0 173.95-41.5 0-82.232 0-123.347 0 0-58.047 0-115.707 0-173.95z" />
</font>
</defs>
</svg>
